<?xml version="1.0" standalone="no"?>
<!DOCTYPE svg PUBLIC "-//W3C//DTD SVG 1.1//EN" "http://www.w3.org/Graphics/SVG/1.1/DTD/svg11.dtd" >
<svg xmlns="http://www.w3.org/2000/svg" xmlns:xlink="http://www.w3.org/1999/xlink" version="1.1">
<metadata>
Created by FontForge 20201107 at Fri Aug  2 12:38:02 2019
 By 
Copyright (c) 2019, Haris Prawoto
gasemraya@gmail.com
</metadata>
<defs>
<font id="OneSignature" horiz-adv-x="656" >
  <font-face 
    font-family="OneSignature"
    font-weight="400"
    font-stretch="normal"
    units-per-em="1000"
    panose-1="2 0 5 3 0 0 0 0 0 0"
    ascent="600"
    descent="-400"
    x-height="142"
    cap-height="526"
    bbox="-234.843 -359 1156 600"
    underline-thickness="50"
    underline-position="-150"
    unicode-range="U+0020-20AC"
  />
<missing-glyph horiz-adv-x="364" 
d="M33 0v600h265v-600h-265zM66 33h199v534h-199v-534z" />
    <glyph glyph-name="ss" unicode="ss" horiz-adv-x="346" 
d="M88 20q6 -4 8 -6q0 -1 -1 -2q-35 -47 -85 -48q-2 0 -5 1q3 4 8 8.5t9 8t11 8t10.5 7t12 6.5t11 5.5t11.5 6t10 5.5zM62 30q-63 -27 -81 -54q-4 -6 -4 -15t6 -14q9 -9 23.5 -10t29.5 4t26.5 11t19.5 11q59 41 32 69q13 6 31 14.5t22 10.5q12 -11 58 -27q-27 -12 -78.5 -43
t-61.5 -47q-5 -6 -4.5 -15.5t5.5 -14.5q18 -16 76 7t84 41q6 4 12 9.5t13.5 13.5t11 16t3 17.5t-8.5 17.5q12 6 25.5 12t21 9.5t15 7.5t10 6t2.5 3q-1 1 -11.5 -1t-32.5 -8.5t-47 -15.5q-10 5 -38.5 13.5t-39.5 16.5q-20 16 32 47q20 12 27 14q6 1 18.5 1t16.5 3
q11 4 16.5 12t2.5 15t-12.5 8.5t-20.5 -2.5q-10 -5 -31 -21q-1 -1 -9 -4.5t-11.5 -5.5t-11.5 -6.5t-12.5 -7.5t-11 -8t-10.5 -9.5t-7 -10.5t-4 -11q-2 -13 5 -24q-28 -7 -62 -20q-10 5 -38.5 13.5t-40.5 16.5q-19 16 33 47q20 12 27 14q5 1 18 1t17 3q10 4 15.5 12t2.5 15
t-12.5 8.5t-19.5 -2.5q-10 -5 -31 -21q-2 -1 -10 -4.5t-11.5 -5.5t-11.5 -6.5t-12.5 -7.5t-11 -8t-10 -9.5t-6.5 -10.5t-4 -11q-2 -12 2.5 -21t16.5 -16t20.5 -10.5t25.5 -9.5q4 -1 6 -2zM252 20q6 -4 7 -6q0 -1 -1 -2q4 -9 -24.5 -30.5t-65.5 -38.5t-55 -15h-5
q13 16 62.5 46t81.5 46z" />
    <glyph glyph-name="tt" unicode="tt" horiz-adv-x="266" 
d="M278 321q94 1 164 -2q47 -2 73 -4.5t25 -5.5q-1 -5 -101 -9q-119 -5 -170 -5v0q-26 -63 -65 -144q-17 -34 -44.5 -97.5t-20.5 -62.5q12 0 45 22t60.5 41.5t29.5 17.5q3 -4 -34.5 -37t-57.5 -47q-37 -25 -56 -20q-27 8 -2 72q16 43 63 131q-44 -56 -95 -115.5t-62 -67.5
q-36 -25 -56 -20q-26 8 -2 72q20 50 64.5 136.5t57.5 113.5q-143 -6 -197 -14q-30 -9 -38 -10q-12 -2 -20.5 2.5t-8.5 11.5q1 11 23.5 14t43.5 1q3 0 15.5 1.5t38.5 4.5t48 5q54 6 106 9q13 31 18 46q0 1 0.5 6.5t0.5 8.5t1 8t1.5 8t2 7t3 6.5t4 5t5.5 4t7 1.5q12 1 14 -13
t-6 -25q-2 -2 -7 -8.5t-8 -10.5q-1 -3 -4 -10.5t-6.5 -18l-4.5 -13.5q55 3 132 4q28 68 30 71q1 5 3 22t7 25t15 9q12 1 14 -13t-6 -25q-2 -2 -7 -8.5t-8 -10.5q-8 -13 -28 -70zM247 294q-50 4 -131 -3q-23 -57 -64 -140q-49 -101 -55 -117q-15 -27 -12 -41q1 -3 3 -2
q10 0 47.5 37t101 106t70.5 75q20 41 40 85z" />
    <glyph glyph-name="dd" unicode="dd" horiz-adv-x="377" 
d="M88 186q0 8 1 17q3 72 43 146q28 53 61 78q22 17 39 17q16 0 23 -8.5t5.5 -24t-4.5 -30t-11.5 -34t-12 -27.5t-8.5 -18q-35 -69 -80 -132q-1 1 -2 3q-19 23 -54 13zM113 90q19 -15 45 -19q14 -2 23.5 -1.5t14.5 1.5l4 2q0 1 -4 1t-14.5 1.5t-21.5 4.5q-22 6 -38 21
q75 91 126 189q31 61 38 102q6 34 -8 56.5t-46 21.5q-40 -1 -79 -46q-49 -56 -72 -141q-15 -55 -10 -104q-4 -2 -7.5 -4.5t-6.5 -5t-6.5 -6l-5.5 -5.5t-5.5 -7t-5 -6.5t-5.5 -7.5t-5 -8q-43 -59 -54 -100q-4 -16 0.5 -29t20 -12t33.5 14q30 20 72 68q9 10 17 20zM97 107
q-21 -26 -43 -49q-25 -26 -42 -39q-17 -12 -23 -10v0q-4 3 4 26q9 25 28 57q10 16 15.5 24t16.5 18.5t24 14.5q7 -24 20 -42zM106 119q-9 14 -13 33q8 1 17 1q10 -1 17 -6q-10 -15 -21 -28zM264 161q0 8 1 17q3 72 43 146q28 53 61 78q22 17 39 17q16 0 23 -8.5t5.5 -24
t-4.5 -30t-11.5 -34t-12 -27.5t-8.5 -18q-35 -69 -80 -132q-1 1 -2 3q-19 23 -54 13zM289 65q19 -15 45 -19q14 -2 23.5 -1.5t14.5 1.5l4 2q0 1 -4 1t-14.5 1.5t-21.5 4.5q-22 6 -38 21q75 91 126 189q31 61 38 102q6 34 -8 56.5t-46 21.5q-40 -1 -79 -46q-49 -56 -72 -141
q-15 -55 -10 -104q-4 -2 -7.5 -4.5t-6.5 -5t-6.5 -6l-5.5 -5.5t-5.5 -7t-5 -6.5t-5.5 -7.5t-5 -8q-43 -59 -54 -100q-4 -16 0.5 -29t20 -12t33.5 14q30 20 72 68q9 10 17 20zM273 82q-21 -26 -43 -49q-25 -26 -42 -39q-17 -12 -23 -10v0q-4 3 4 26q9 25 28 57q10 16 15.5 24
t16.5 18.5t24 14.5q7 -24 20 -42zM282 94q-9 14 -13 33q8 1 17 1q10 -1 17 -6q-10 -15 -21 -28z" />
    <glyph glyph-name="kk" unicode="kk" horiz-adv-x="443" 
d="M368 419q-14 -42 -41.5 -102t-42.5 -74q45 115 84 176zM235 102q13 40 26 77q8 -3 15.5 2.5t14 18.5t9.5 20.5t7 20.5q71 127 88 184q5 11 3 26t-17 15q-3 0 -5.5 -1t-5 -2.5t-4 -3t-3.5 -4t-3 -3.5t-3.5 -4t-2.5 -4q-39 -52 -83 -163q-23 -60 -42 -123
q-12 -14 -25 -26.5t-33 -31t-40 -30.5t-40.5 -21t-39.5 -6t-33 17q-11 13 41.5 49.5t67.5 38.5q4 0 13 -2t11 0q16 7 8.5 23.5t-22.5 9.5q-5 -2 -18 -14q-77 -34 -108 -63q13 40 26 77q8 -3 15.5 2.5t14 18.5t9.5 20.5t8 20.5q70 127 87 184q6 11 3.5 26t-17.5 15
q-2 0 -5 -1t-5 -2.5l-4 -3t-4 -4t-3 -3.5t-3 -4t-3 -4q-39 -52 -83 -163q-26 -67 -46 -139q-13 -47 -22 -89t-11 -62.5t0 -21t6 12t14 45.5q4 13 6 20q26 -27 59 -27.5t65.5 20t59.5 47.5t47 56l-1 -1q-36 -128 -46 -218q-1 -11 0 -12q2 0 8 22t16.5 58.5t15.5 54.5
q11 -17 42.5 -21t58 0.5t52.5 11.5q22 6 39.5 13t25.5 11.5t7.5 6.5t-27.5 -2t-62.5 -9.5t-47.5 -6.5q-53 -2 -64 9q-12 12 40.5 49t68.5 39q4 0 13 -2t11 0q15 7 8 23.5t-22 9.5q-6 -2 -18 -14q-77 -34 -108 -63zM374 446zM144 419q-14 -42 -41.5 -102t-41.5 -74
q45 115 83 176zM151 446z" />
    <glyph glyph-name="ll" unicode="ll" horiz-adv-x="302" 
d="M90 -162q-1 3 -0.5 15t1.5 14q1 10 5.5 25t10.5 31t11.5 30.5t11.5 30t8 23.5q34 93 75 189q7 1 16.5 12t17.5 28q7 14 23 63q2 5 32 67.5t43 96.5q3 8 3 12q-4 3 -10 9q-9 0 -13 1q-4 -4 -15 -25q-85 -160 -163 -357q-1 -2 -17.5 -43t-23.5 -59t-17.5 -49t-15.5 -51
t-7 -30t-0.5 -28t12.5 -24q5 -4 11 -4q4 0 8 1t7.5 2.5t6 3t6.5 4.5t5 4t5.5 5l4.5 4q18 17 95.5 126.5t72.5 112.5q-3 3 -21.5 -18t-43.5 -54t-51 -66.5t-47.5 -60.5t-29.5 -32q-13 -10 -17 -9zM90 -162zM90 -162zM-28 -96q-1 2 -0.5 14.5t0.5 14.5q2 9 4 21.5t3 17.5
t3.5 14t6.5 21q33 93 74 189q7 1 17 12t18 28q6 14 23 63q2 5 31.5 67.5t42.5 96.5q3 8 4 12q-5 3 -11 9q-9 0 -13 1q-4 -4 -15 -25q-85 -160 -163 -357q-23 -57 -42 -137q-5 -20 -7 -30t-0.5 -27.5t12.5 -24.5q5 -3 11 -3q4 0 8 0.5t7.5 2.5t6 3t6.5 4.5t5 4.5t5.5 5l4.5 4
q17 16 134.5 225t107.5 216l-184 -309q-72 -116 -83 -124q-13 -10 -17 -9zM-28 -96zM-28 -96z" />
    <glyph glyph-name=".notdef" horiz-adv-x="364" 
d="M33 0v600h265v-600h-265zM66 33h199v534h-199v-534z" />
    <glyph glyph-name=".null" horiz-adv-x="0" 
 />
    <glyph glyph-name="nonmarkingreturn" horiz-adv-x="333" 
 />
    <glyph glyph-name="space" unicode=" " horiz-adv-x="150" 
 />
    <glyph glyph-name="exclam" unicode="!" horiz-adv-x="210" 
d="M48 -39q-10 0 -17.5 -8t-7.5 -19.5t7.5 -20t17.5 -8.5t17.5 8.5t7.5 20t-7.5 19.5t-17.5 8zM185 468q3 13 -4.5 20t-17.5 4t-13 -16q-2 -6 -1 -28q0 -2 -2.5 -10.5t-7 -25.5t-8.5 -33q-45 -183 -66 -321q-11 -75 -5 -72.5t24 68.5q28 110 68 321q13 64 16 70q2 3 9 10
t8 13z" />
    <glyph glyph-name="quotedbl" unicode="&#x22;" horiz-adv-x="168" 
d="M141 449l-1.5 3l-2.5 5l-2.5 5t-3 5t-3.5 4t-3.5 2t-3.5 -1q-2 -2 -2 -9l-1 -1.5t-3.5 -3.5t-4.5 -4q-31 -34 -36 -63q-3 -18 12 -8q6 3 10 8q13 14 31 50q2 5 3.5 7t3.5 2q2 -1 7 -5l2 -1q1 0 -2 5zM92 449l-1 3t-2 5t-3 5t-3.5 5t-3.5 4t-3.5 2t-3.5 -1q-2 -2 -1 -9
l-1.5 -1.5t-4 -3.5t-4.5 -4q-31 -34 -36 -63q-3 -18 12 -8q6 3 10 8q13 14 31 50q2 5 3.5 7t3.5 2q2 -1 7 -5l2 -1q1 0 -2 5z" />
    <glyph glyph-name="numbersign" unicode="#" horiz-adv-x="369" 
d="M181 222q-8 -16 -16 -35l-18 -2q3 5 8.5 17.5t8.5 18.5q8 1 17 1zM344 245q0 7 -49 8.5t-68 -1.5q10 18 29.5 45.5t25.5 29.5q4 1 12 1t9 3q7 5 3.5 14.5t-11.5 13.5t-15 -1q-5 -4 -11 -17l-4 -4l-9 -9t-12 -12.5t-14 -16.5q-18 -22 -34 -49q-12 -1 -20 -1q16 36 27 58
q15 28 21 31q2 0 9 1.5t9.5 4t0.5 9.5q-1 10 -11 16t-18 -3q-4 -4 -8 -19q0 -1 -6 -9t-14 -21q-21 -32 -40 -71q-46 -5 -48 -5q-40 -4 -45 -3l-7 7t-9 5q-7 0 -11 -9t-1 -18t11 -9q5 0 18 6q2 0 35.5 -0.5t43.5 0.5q-8 -20 -16 -39q-59 -10 -61 -9q-3 1 -8.5 5.5t-8.5 4.5
q-7 -1 -9.5 -10t1.5 -18t11 -8q4 0 16 7l8.5 0.5t21 1.5t20.5 2q-12 -34 -20 -66.5t-3 -34.5q2 0 6.5 8t12.5 24.5t13 28t14 31.5q3 7 5 11q2 0 19 1q-8 -24 -18 -65t-3 -43q3 -1 12.5 20t22.5 54.5t14 35.5q35 3 106 8q43 3 43 8q1 6 -42 11q-41 5 -95 1q8 16 17 35
q132 12 132 20z" />
    <glyph glyph-name="dollar" unicode="$" horiz-adv-x="266" 
d="M105 44q12 49 29 107q1 0 4 -1q6 -2 9.5 -3t10.5 -4t9.5 -5.5t7.5 -7t3.5 -9t-1.5 -11.5q-5 -12 -21 -29q-24 -25 -51 -37zM157 302q-25 -66 -41 -117q-3 1 -13.5 3.5t-16.5 4t-13 5t-11 7.5l-2 2q-5 13 8 33q13 21 38 38.5t51 23.5zM180 304q13 -1 23 -6t9 -14
q0 -6 -3.5 -14.5t-3.5 -14.5q-2 -19 7 -24q11 -5 21 8.5t9 29.5q0 22 -16.5 36.5t-40.5 17.5q11 34 14 37q2 4 10 10t10 11q7 20 -10 26t-24 -13q-2 -6 -4 -28q-1 -2 -3 -7t-6 -16t-7 -20q-36 -3 -67.5 -22.5t-49.5 -46.5q-6 -9 -10 -20.5t-3.5 -25t9.5 -21.5q4 -5 9.5 -8.5
t14 -6.5t12 -4.5t15.5 -4.5t13 -4q-19 -65 -29 -123q-15 -3 -28 0.5t-12 15.5t26 37q7 7 6.5 8.5t-9.5 -3.5q-18 -9 -32 -25.5t-3 -35.5q12 -19 44 -19q2 0 5 1q-4 -28 -6 -64.5t3 -43.5q1 0 6 19.5t12 53t8 38.5q55 15 92 64q11 15 13.5 31.5t-9.5 33.5q-14 17 -53 30
q21 75 38 127z" />
    <glyph glyph-name="percent" unicode="%" horiz-adv-x="364" 
d="M151 32zM175 59q-1 -2 -3 -6.5t-3.5 -7.5t-4 -6t-6 -4.5t-7.5 -1.5q0 6 7 17.5t10 11.5q2 0 7 -3zM179 63q-2 7 -10 16t-12 6q-1 -1 -2 -9l-6.5 -6.5l-9.5 -9.5t-9 -12t-4.5 -14t2.5 -15q9 -13 25.5 -12t26.5 13q15 19 5 38q-3 5 -6 5zM135 390q0 6 9.5 16t14.5 7l4 -4
q-2 -1 -7.5 -6.5t-10.5 -8.5t-10 -4zM335 432q-6 6 -14 5.5t-14 -6.5q-6 -5 -18 -24q1 0 -2.5 -3t-9 -8.5l-12 -12t-15 -14.5t-15.5 -16q-55 -57 -99 -118q-58 -82 -91 -162q-8 -21 -13.5 -39t-6.5 -25.5t0 -10.5q1 0 3 2.5t5.5 9t7 13.5t10 19.5t12.5 22.5q44 82 101 162
q46 64 87 112q43 49 52 55q4 2 14 4.5t14 5.5q7 6 8 14.5t-4 13.5zM170 413q-1 5 -2.5 11t-4.5 11t-5 4t-6 -8l-7 -3.5t-9.5 -4.5t-8.5 -5t-8.5 -7t-6 -7.5t-4.5 -8.5t0 -9.5t4 -11.5q7 -9 18 -10.5t20 4.5q17 11 23 30q5 16 -3 15zM133 390z" />
    <glyph glyph-name="ampersand" unicode="&#x26;" horiz-adv-x="321" 
d="M154 132q-15 -39 -29 -78q-59 -7 -83 0q-4 1 -5 2q0 11 17 25q25 20 100 51zM195 240q-12 -29 -23 -59q-50 -5 -60 3l-2 1l2 4q18 28 83 51zM226 165q1 5 2 11q-1 2 -2 6t-3 4h-7q1 1 1 2q-4 -3 -17 -4q9 27 22 64q48 12 59 -12q1 -1 3 -7t3.5 -9t5.5 -6t10 2
q11 6 13 21.5t-5 24.5q-15 18 -55 10q-14 -1 -27 -4q29 87 32 92l11 11t10 14q8 21 -7 25q-16 5 -26 -14q0 -2 -1 -4q-3 -6 -6 -30q0 -3 -5 -15t-15.5 -38.5t-17.5 -46.5q-83 -23 -111 -63q-17 -22 1 -33t48 -11q-73 -31 -102 -55q-9 -7 -17 -18t-12 -25t8 -21q23 -16 98 -4
q-27 -76 -41 -123t-10 -48q9 -2 78 176q87 19 113 52q9 11 8.5 22t-7.5 17q-4 3 -3 1q0 -1 1 -4q1 -7 2 -10q1 -16 -20 -29q-27 -17 -85 -27q20 50 33 87q19 8 31 14h1v1q5 2 8 4z" />
    <glyph glyph-name="quotesingle" unicode="'" horiz-adv-x="168" 
d="M72 472q-2 -2 -1 -9l-1.5 -1.5t-4 -3.5t-4.5 -4q-31 -34 -36 -63q-3 -18 12 -8q6 3 10 8q13 14 31 50q3 6 7 9q7 5 4.5 10t-9.5 9t-8 3z" />
    <glyph glyph-name="parenleft" unicode="(" horiz-adv-x="260" 
d="M225 454q8 8 10 17t-2.5 14.5t-14.5 4.5t-18 -9t-22 -30q-46 -52 -67 -83q-113 -164 -81 -319q8 -42 28 -80q12 -22 26 -39.5t22 -24.5t9 -6q2 2 -3.5 10t-16.5 27.5t-20 40.5q-31 73 -25 154q8 111 80 225q13 22 28 41.5t23.5 29.5t11.5 12q5 3 16 7t16 8z" />
    <glyph glyph-name="parenright" unicode=")" horiz-adv-x="252" 
d="M31 -65q-8 -7 -10.5 -16.5t2.5 -15t14.5 -4t18.5 9.5q8 7 21 30q46 51 68 82q112 164 81 319q-9 43 -28 80q-13 23 -26.5 40.5t-21.5 24t-9 5.5q-2 -1 3 -9.5t16.5 -28t20.5 -40.5q31 -72 25 -153q-8 -111 -80 -225q-13 -22 -28 -41.5t-23.5 -29.5t-12.5 -12
q-5 -3 -15.5 -7t-15.5 -9z" />
    <glyph glyph-name="asterisk" unicode="*" horiz-adv-x="204" 
d="M116 448q-12 0 -28 -40q-34 32 -41 27q-2 -6 29 -46q-52 0 -52 -5q-1 -7 35 -12q-16 -11 -23.5 -18.5t-3.5 -10.5q7 -6 40 11q-8 -36 -1 -38q8 -5 28 45q16 -18 27 -27t15 -3q5 9 -18 38q43 2 41 12q-4 4 -38 6q24 17 39.5 31t12.5 18q-3 5 -63 -29q11 40 1 41z" />
    <glyph glyph-name="plus" unicode="+" horiz-adv-x="283" 
d="M145 272q-3 -4 -7 -17t-8 -29t-7 -23q-18 -1 -43 -4q-33 -4 -35 -3t-6 6t-7 5q-6 0 -7.5 -9.5t1.5 -18t8 -8.5q3 0 12 6h69q-10 -39 -10 -74q-1 -32 5 -33q5 0 13 30q3 10 9.5 35t10.5 42q115 2 115 14q0 4 -14 7t-39 5t-54 1q23 74 4 75q-5 0 -10 -7z" />
    <glyph glyph-name="comma" unicode="," horiz-adv-x="139" 
d="M20 38q0 7 8 12.5t15 5.5t15.5 -5.5t8.5 -12.5q0 -8 -17 -27t-24 -19q-6 0 -6 46z" />
    <glyph glyph-name="hyphen" unicode="-" horiz-adv-x="246" 
d="M80 199q-33 -4 -35 -3t-6 6t-7 5q-6 0 -7.5 -9.5t1.5 -18t8 -8.5q2 0 6 3t6 3h1q11 0 28 -0.5t52.5 -1t58 3.5t21.5 13q-2 10 -53.5 10.5t-73.5 -3.5z" />
    <glyph glyph-name="period" unicode="." horiz-adv-x="141" 
d="M23 40q0 7 8 12.5t15 5.5q8 0 16 -5.5t8 -12.5t-9.5 -15.5t-16.5 -8.5t-14 8t-7 16z" />
    <glyph glyph-name="slash" unicode="/" horiz-adv-x="210" 
d="M48 -39q-10 0 -17.5 -8t-7.5 -19.5t7.5 -20t17.5 -8.5t17.5 8.5t7.5 20t-7.5 19.5t-17.5 8zM185 468q3 13 -4.5 20t-17.5 4t-13 -16q-2 -6 -1 -28q0 -2 -2.5 -10.5t-7 -25.5t-8.5 -33q-45 -183 -66 -321q-11 -75 -5 -72.5t24 68.5q28 110 68 321q13 64 16 70q2 3 9 10
t8 13z" />
    <glyph glyph-name="zero" unicode="0" horiz-adv-x="291" 
d="M102 269q29 22 42 40q8 10 5 17.5t-18 3.5q-40 -8 -67 -74q-16 -29 -28 -70t-11 -90.5t28 -75.5q11 -11 27.5 -14.5t35.5 3.5q34 13 67 60q64 90 80 212q6 31 3 60t-12.5 51.5t-32 32.5t-55.5 2q-48 -12 -81 -53.5t-44 -92.5q-5 -20 -5 -39q0 -11 1 -20t2.5 -12.5
t2.5 -3.5t1 4t0.5 13t1.5 18q7 49 32.5 90t62.5 62q14 7 30 11t33 0.5t25 -16.5q20 -30 9 -104q-21 -142 -94 -224q-45 -50 -74 -23q-22 20 -23.5 66t10.5 88t26 60q8 8 20 18z" />
    <glyph glyph-name="one" unicode="1" horiz-adv-x="208" 
d="M181 407q4 11 -2.5 18.5t-16.5 6t-14 -12.5q-2 -5 -4 -25q-4 -12 -34.5 -87t-38.5 -100q-18 -49 -29 -96q-8 -33 -12.5 -62t-5 -42t1.5 -16q1 0 2.5 2.5t4 8t4.5 12t5.5 18t6.5 21t7.5 25t8.5 27.5q2 5 65 193q30 88 32 91q3 2 10.5 7.5t8.5 10.5z" />
    <glyph glyph-name="two" unicode="2" horiz-adv-x="447" 
d="M375 348q8 42 -9 67t-56 20q-42 -4 -91 -37q-47 -31 -80 -76q-4 -5 -16.5 -17t-18 -23t-4.5 -27q2 -17 10.5 -22t16.5 5q6 10 13 37t14 37q19 26 52.5 51.5t67.5 38.5q65 24 75 -8q10 -35 -20 -90q-47 -88 -194 -218q-17 -15 -44 -37.5t-38 -32.5q-16 4 -19 2
q-10 -4 -10 -14t7.5 -16.5t16.5 -2.5q3 1 17 13q40 16 118.5 23t148.5 4q13 -1 24.5 -1.5t23 -1.5t17.5 -1q27 -2 24 3q-6 10 -73 21l-14 2q-52 7 -106 5q-73 -4 -151 -30q33 20 70 49q153 119 208 223q15 28 20 54z" />
    <glyph glyph-name="three" unicode="3" horiz-adv-x="419" 
d="M183 238q8 -6 9 -12q7 2 23 7t27.5 8.5t26.5 6t29.5 2t27.5 -5.5q27 -10 25 -38q-2 -18 -15 -43q-65 -123 -201 -145q-41 -6 -67 6.5t-35 44.5q-2 6 -3.5 12.5t-2 9.5l-0.5 3q-4 -2 -2 -21.5t6 -27.5q11 -26 38.5 -38t67.5 -7q68 7 131 48q53 33 91 102q25 48 16 80
q-19 59 -121 40q59 37 91 64q38 31 47 55q2 7 2 14q0 9 -3 16t-9 11.5t-12 7t-16 3t-17.5 1t-19 -1t-18 -2.5t-17.5 -3t-14 -2q-6 -1 -20.5 -2t-24 -3t-18.5 -6q-29 -12 -37 -29q-7 -15 14 -13q18 1 38 9q13 6 27 13t29 13q15 4 32 7t38 0.5t26 -14.5q2 -2 1 -5
q1 -10 -15 -27q-27 -30 -95 -71t-77 -48q-1 -7 -3 -19z" />
    <glyph glyph-name="four" unicode="4" horiz-adv-x="377" 
d="M233 419q3 12 -3.5 18.5t-18.5 1.5q-11 -4 -24 -23.5t-15 -21.5q-49 -51 -75 -83q-19 -22 -27.5 -33.5t-22 -33t-19.5 -41.5q-12 -37 12 -55t68 -14q34 3 85 18q-21 -56 -29 -105q-4 -20 -5 -36.5t0 -24.5t2.5 -8t4 6t8 26t8.5 32q17 57 43 119q21 6 53 16.5t46 15.5
l21 6q15 5 -1 6q-12 1 -28.5 -1.5t-25.5 -4t-31.5 -7.5l-22.5 -6q24 56 58 130q27 57 30 61q3 2 11 7t11 9q8 17 -8 25t-24 -8q-3 -6 -7 -26l-4.5 -9t-12 -21.5t-15.5 -27.5q-48 -89 -72 -148q-1 0 -11.5 -2.5t-18 -4.5t-21 -4.5t-23.5 -4t-23 -2.5t-22 0t-17 3t-12.5 7
t-3.5 12q0 12 9 30q16 36 56 87t69 82q6 6 25 15.5t23 22.5z" />
    <glyph glyph-name="five" unicode="5" horiz-adv-x="386" 
d="M240 184q0 -39 -32 -87q-40 -59 -88 -86q-35 -19 -63 -13q-4 1 -17 8q-17 9 -16 6q1 -2 5 -8q22 -26 61 -21q36 4 76 34q35 27 63 66q37 52 37 100q1 24 -11 38.5t-36 13.5q-25 0 -62 -13t-47 -15q-8 -2 -13.5 -0.5t-4.5 10.5q0 7 4 18q19 55 40 105l8 16q5 6 16 15
t16 18q257 24 256 37q0 6 -49 6q-92 -1 -202 -20q-3 14 -15.5 10.5t-21.5 -16.5q-23 -4 -25 -4q-3 1 -9.5 5.5t-9.5 3.5q-9 -1 -11.5 -10.5t2.5 -18t13 -6.5q5 0 18 8q2 0 12 1q-9 -22 -27 -64t-32 -78q-9 -18 -4.5 -39.5t27.5 -21.5q24 -1 61.5 13t59.5 14q12 -1 16.5 -6.5
t4.5 -18.5z" />
    <glyph glyph-name="six" unicode="6" horiz-adv-x="292" 
d="M209 389q18 6 36 19.5t13 23.5q-3 8 -16.5 7t-29.5 -10q-8 -5 -16.5 -12.5t-18 -17.5t-15.5 -14q-38 -35 -68 -78q-56 -82 -68 -171q-3 -32 -0.5 -60.5t17.5 -50t40 -26.5q31 -6 68 14q67 36 101 100q15 29 15 50q0 13 -9.5 21.5t-22.5 5.5q-16 -4 -36 -19
q-22 -17 -48 -46q-20 -21 -35 -41t-21 -30t-5 -10q1 -2 8.5 5.5t26.5 27.5t38 37q41 39 65 50q14 7 15 4q3 -2 0 -15q-7 -28 -36 -61q-30 -35 -69 -55q-42 -23 -65 -5q-30 24 -21 101q7 69 43.5 135t79.5 103q12 11 34 18z" />
    <glyph glyph-name="seven" unicode="7" horiz-adv-x="268" 
d="M97 410q-5 -1 -16 -1.5t-18 -2t-13 -6.5q-8 -5 -12 -12t0 -17q5 -5 12.5 -6t16 3t15 8t14.5 10t10 7q22 9 57 16q79 18 96 0q3 -2 -6 -18t-25 -39.5t-31 -44.5t-29.5 -40.5t-15.5 -20.5q-29 -41 -46 -66.5t-38.5 -65t-32.5 -74.5q-4 -13 -9 -38t0 -26q1 0 5.5 12.5t10 27
t7.5 18.5q23 50 58.5 103t80 112t67.5 96q1 2 5.5 8.5t6 9.5t5 9t5.5 10.5t3.5 10.5t2.5 11q2 19 -14 27.5t-39 8.5q-30 0 -71 -11q-16 -4 -30 -8.5t-21.5 -7.5t-10.5 -3z" />
    <glyph glyph-name="eight" unicode="8" horiz-adv-x="373" 
d="M302 362q24 18 38 42q15 25 1 27q-7 1 -21 -7q-6 -4 -11.5 -8.5t-12 -11t-10.5 -11t-11.5 -13.5t-9.5 -11.5t-10 -13.5l-8 -11q-40 -43 -68 -75q-19 16 -33 28q-22 21 -27 31q-2 4 -2 5q-1 17 24 35q14 9 36.5 18t36.5 13.5t46.5 12t37.5 9.5q17 4 -1 4q-42 0 -89 -12
t-77 -30q-17 -10 -29 -27.5t-2 -36.5q7 -15 31 -38q14 -13 33 -29q-93 -108 -125 -174q-26 -54 -7 -80q45 -59 208 35q59 34 74 59q12 19 -4 50q-15 28 -57 66q-17 15 -58 48q55 66 68 77q8 7 22 16.5t17 12.5zM293 108q-2 -6 -17 -19q-54 -44 -136 -72q-88 -31 -91 7
q-1 15 12 43q18 39 62 99q18 25 57 72q62 -52 87 -80q0 -1 4 -5.5t5.5 -6.5t5 -6t5 -7t3.5 -7.5t2.5 -9t0.5 -8.5z" />
    <glyph glyph-name="nine" unicode="9" horiz-adv-x="291" 
d="M212 396q10 0 17.5 0.5t20 2.5t12.5 6.5t-4 13.5q-29 32 -101 -7q-104 -43 -128 -115q-5 -18 -5 -36.5t11 -32t30 -10.5q22 2 54 25q56 39 119 110q3 -29 -7 -78q-25 -129 -84 -212q-30 -43 -58 -51q-25 -7 -56 20q-6 5 -7 4.5t3 -7.5q10 -15 26.5 -25t37.5 -6
q34 7 70 53q81 104 100 254q4 36 1 61q-8 15 -17 25q-3 1 -10 1q-49 -56 -96 -99q-43 -38 -67 -48q-17 -7 -23 0q-10 14 -1 45q15 52 84 90q6 4 11 6.5t9 4t9 2.5t7.5 2t8.5 1h8.5h11h13.5z" />
    <glyph glyph-name="colon" unicode=":" horiz-adv-x="93" 
d="M23 254q0 7 8 12.5t15 5.5q8 0 16 -5.5t8 -12.5t-9.5 -15.5t-16.5 -8.5t-14 8t-7 16zM23 170q0 7 8 12.5t15 5.5q8 0 16 -5.5t8 -12.5t-9.5 -15.5t-16.5 -8.5t-14 8t-7 16z" />
    <glyph glyph-name="semicolon" unicode=";" horiz-adv-x="93" 
d="M23 254q0 7 8 12.5t15 5.5q8 0 16 -5.5t8 -12.5t-9.5 -15.5t-16.5 -8.5t-14 8t-7 16zM23 170q0 7 8 12.5t15 5.5q8 0 16 -5.5t8 -12.5q0 -8 -12 -29t-18 -21t-11.5 20t-5.5 30z" />
    <glyph glyph-name="less" unicode="&#x3c;" horiz-adv-x="286" 
d="M248 290q18 8 11.5 24.5t-25.5 8.5q-5 -2 -22 -15q-11 -6 -42.5 -18.5t-52.5 -22t-45 -25.5t-36 -32q-10 -11 -12 -27t6 -32q17 -35 87 -77q23 -14 43 -24t30.5 -13.5t11.5 -2.5q1 2 -9 10t-26.5 20t-33.5 24.5t-32.5 25t-22.5 18.5l-12.5 12.5t-10 13.5t-5 18t6.5 18
q12 17 53 42q26 15 65 34q40 20 46 21q4 0 14.5 -1.5t12.5 0.5z" />
    <glyph glyph-name="equal" unicode="=" horiz-adv-x="283" 
d="M89 246q-6 0 -7.5 -9.5t1.5 -18.5t8 -8l109 9q52 7 51 15q-1 5 -41.5 8t-77 3.5t-43.5 0.5zM58 177q-11 -1 -10 -16q0 -12 7 -11h28t53.5 1t60.5 4.5t23 9.5q-1 5 -41.5 8t-77 3.5t-43.5 0.5z" />
    <glyph glyph-name="greater" unicode="&#x3e;" horiz-adv-x="286" 
d="M36 69q-17 -7 -10.5 -24t24.5 -9q6 2 22 15q12 6 43 18.5t52.5 22t45.5 25.5t36 32q9 12 11 27.5t-5 31.5q-18 35 -87 77q-23 14 -43 24t-30.5 14t-11.5 2t9 -10t26 -20t33 -24.5t33 -25t23 -18.5q8 -8 12 -12.5t10 -13.5t5.5 -18t-6.5 -18q-13 -17 -53 -41
q-26 -16 -65 -35q-40 -20 -46 -21q-4 0 -14.5 1.5t-13.5 -0.5z" />
    <glyph glyph-name="question" unicode="?" horiz-adv-x="394" 
d="M47 -51q-10 0 -17 -7.5t-7 -17.5t7 -17.5t17 -7.5t17 7.5t7 17.5t-7 17.5t-17 7.5zM366 433q-13 35 -45.5 52.5t-78.5 8.5q-20 -4 -41 -12q-11 -5 -23 -11t-21.5 -11.5t-17 -10.5l-12 -8l-4.5 -3q-5 -3 -14.5 -6.5t-16 -7.5t-12.5 -10q-4 -5 -8.5 -12.5t-6 -16t5.5 -12.5
q11 -6 31 12q-8 -9 0 -1q2 3 5 6l-5 -5q4 5 18.5 21t17.5 19q10 8 27 17.5t44 20t51.5 11.5t47.5 -9q21 -10 31 -33.5t0 -50.5q-11 -31 -55 -75q-23 -23 -68.5 -61.5t-80 -73t-57.5 -70.5q-23 -35 -28 -67q-2 -11 -1.5 -18.5t1.5 -11.5t1.5 -4t1.5 3.5t2.5 12t4.5 16.5
q13 41 56 88q29 30 105 93.5t110 103.5q53 63 35 116z" />
    <glyph glyph-name="at" unicode="@" horiz-adv-x="335" 
d="M214 51zM214 53q0 5 1.5 10.5t3 9.5t5 10.5t4.5 8.5q2 4 8.5 16.5t10 21t5.5 18.5q2 11 -5.5 15.5t-16.5 -1.5q-15 -8 -41 -33.5t-43 -33.5q-10 -5 -12 0q-15 41 37 66l19 8q18 9 37 12q11 3 8.5 11t-12.5 12q-31 15 -61.5 -8.5t-41.5 -54.5q-5 -10 -6.5 -27.5t6 -31
t25.5 -8.5q16 4 48 31q4 4 14 13t16 13l-5 -8q-24 -47 -27 -61q-5 -20 8.5 -29t32.5 0q24 11 44 45t28 75.5t5 81t-27 66t-65 25.5q-55 -2 -109 -52q-59 -55 -79 -139q-17 -72 18.5 -123.5t101.5 -51.5q31 0 60 14q6 3 10.5 5.5t6 4t1.5 2t-21 -5.5q-27 -9 -61 -5.5
t-58 21.5q-26 20 -36 53.5t0 80.5q14 53 46 95.5t77 62.5q31 15 60 8.5t40 -31.5q13 -26 11 -60.5t-11 -63.5t-21 -51q-16 -28 -31 -35q-1 -1 -8 -2z" />
    <glyph glyph-name="A" unicode="A" 
d="M389 -194q-1 -36 20 -35q15 -1 18.5 10.5t1 32t-0.5 28.5q15 73 88 329q-6 -21 -20 -72l-36 -127q11 38 57 199q11 0 50 -2t60 -2.5t29 0.5q1 6 -48.5 15t-84.5 12q38 135 46 217q1 11 1.5 17t1 17t0.5 17.5t-1 16.5t-3 16t-5 13t-8 10.5t-11 6t-14.5 1.5t-18.5 -4
q-29 -10 -69 -42q-58 -45 -130 -126q-83 -91 -159 -200q-16 -4 -19 -4q-4 0 -14.5 2t-16.5 1q-10 -3 -15 -10t-3 -14q7 -24 50 0q-10 -15 -22.5 -34.5t-21 -32.5t-10.5 -15q-6 -8 -23.5 -29.5t-27 -37t-18.5 -35.5q-9 -23 -11.5 -41t3.5 -20t14.5 8t19.5 29t17.5 31t14.5 30
q2 4 3 5q2 6 8 17.5t7 14t5.5 11t5.5 10.5t5.5 9.5t7 11t8.5 12.5l11 16.5t14 19.5q9 14 20 28q153 34 325 34q-6 -21 -18 -62t-19 -65q-35 -81 -55 -170q-9 -43 -9 -68zM519 497q24 8 25 -18q3 -57 -12 -136q-11 -58 -36 -147q-150 7 -314 -35q122 165 236 266q43 39 74 57
q16 10 27 13zM533 232q-4 -15 -10 -38h-1q11 37 11 38zM411 -210z" />
    <glyph glyph-name="B" unicode="B" horiz-adv-x="675" 
d="M387 416q23 12 50 22t60.5 18.5t68.5 8t64 -13.5q24 -10 24 -19q0 -10 -22 -27t-66 -39q-100 -48 -290 -107q25 55 54 118q30 22 57 39zM397 528q-8 4 -16 -1.5t-13 -15.5q-4 -8 -11 -36q-1 -1 -37 -71q-65 -32 -104 -80q-15 -18 -21 -32t-1.5 -17t15.5 5t24 18t32 26
t24 20q-26 -52 -46 -95q-10 -3 -38 -10.5t-43 -12.5q-1 0 -3 -1q0 1 -6 -5q-5 -3 -2.5 -12.5t6.5 -9.5q4 -2 10.5 -2.5t10.5 0t12.5 1.5t11.5 1q9 1 19 3q-51 -118 -75 -217q-6 -28 -10 -52t-4 -33.5t1 -12.5q1 0 3 3.5t4.5 12.5t5.5 19t8.5 26.5t9.5 31.5q34 103 88 226
q24 4 83.5 17t94.5 16q39 4 70.5 -1t55.5 -19.5t35 -42.5t4 -67q-10 -56 -46 -93.5t-92 -68.5q-92 -52 -193 -68q-69 -10 -123.5 0.5t-89.5 47t-39 96.5q-3 38 7 88q6 32 4.5 31.5t-10.5 -29.5q-14 -47 -13 -91q1 -65 38 -106t95.5 -54.5t133.5 -3.5q169 23 286 125
q53 48 67 121q13 66 -19.5 108.5t-92.5 52.5q-12 2 -23.5 3t-23.5 0.5t-21.5 -0.5t-23 -2t-20.5 -3t-22.5 -4.5t-20 -4.5t-21 -4.5t-19.5 -4.5q69 23 109 37t96 38t97 48q15 10 23 15t19 16t15 22q3 6 3 12q-1 24 -37 38q-17 7 -34.5 11t-37 3.5t-34.5 -1t-36 -7t-32 -9
t-33.5 -12t-28.5 -12.5t-28.5 -13.5t-23.5 -10.5q21 45 25 49q3 4 12.5 12t13.5 15q5 10 4 20t-8 13zM167 222z" />
    <glyph glyph-name="C" unicode="C" horiz-adv-x="497" 
d="M373 306q-38 -59 -25 -68q6 -5 22.5 9.5t32.5 39.5q23 34 41 85q8 17 14 36t9 42.5t-5.5 42t-30.5 24.5q-37 11 -96 -16q-80 -37 -152 -118q-99 -109 -154 -292q-16 -56 -24 -106q-6 -33 -5 -67.5t8 -63t27.5 -47t51.5 -18.5q40 -1 94 27q58 30 130 92q87 73 137 120
q9 8 23 20t20.5 18t5.5 7q-2 2 -19.5 -10.5t-46 -34.5t-52 -40.5t-51 -41t-29.5 -23.5q-74 -60 -128 -87q-93 -46 -126 -1q-30 40 -13 146q14 96 60 206q68 160 181 249q56 43 103 58q22 8 44.5 4t27.5 -24q7 -25 -3.5 -56t-24.5 -51q-12 -17 -23.5 -30t-23.5 -31z" />
    <glyph glyph-name="D" unicode="D" horiz-adv-x="701" 
d="M701 394q2 42 -15.5 71t-48 41.5t-70 17.5t-82.5 -1q-118 -13 -292 -80q-86 -32 -137 -91q-47 -56 -47 -117q1 -53 34.5 -87.5t81.5 -50.5q22 -8 46 -12q-67 -125 -88 -208q-3 0 -16.5 -1.5l-22.5 -2.5t-20 -3t-17.5 -5t-6.5 -6q-1 -11 26 -15.5t49 -3.5q-3 -24 1 -24
q1 -1 10 25q47 6 108 32q116 41 223 122.5t184 181.5q78 100 95 184q4 17 5 33zM200 82q13 -1 13 0.5t-11 3.5q24 44 69 124t63 113q5 8 11 19t8 14.5t5.5 9t7 8.5t9.5 8q23 18 16 39q-4 12 -14 9.5t-17 -10.5q-5 -7 -16 -42q-4 -8 -74 -121q-60 -99 -95 -165
q-107 27 -137 94q-14 27 -9.5 58t16 53t27.5 41q47 52 130 83q173 64 286 75q124 13 166 -35q22 -24 20 -66q-1 -27 -12 -61q-23 -66 -81 -143q-127 -169 -307 -264q-59 -30 -92 -38q-17 -4 -82 -10q31 79 100 203z" />
    <glyph glyph-name="E" unicode="E" horiz-adv-x="625" 
d="M485 522q-8 7 -22 -3t-26 -24q-59 -5 -133 -14q-89 -11 -92 -11q-4 1 -15 5t-17 3q-11 -1 -17.5 -7.5t-5.5 -13.5t9 -11.5t18 -3.5q7 1 32 10q32 4 201 15q-11 -16 -46 -55q-146 -166 -202 -259q-106 -20 -121 -15q-3 1 -11.5 5.5t-13.5 5.5q-14 0 -20 -9t-1 -18t19 -9
q9 -1 31 5q71 5 102 9q-60 -111 -19 -166q59 -79 308 -29q38 7 69 15.5t45.5 13.5t13.5 6q0 2 -13 0t-50.5 -8t-67.5 -10q-4 -1 -14 -2q-25 -4 -40 -5.5t-44 -5t-48.5 -3t-45 2t-42.5 7.5t-32.5 15.5t-22.5 25t-6 36.5q2 43 42 112q152 23 326 69q37 10 37 13
q-3 16 -346 -54q58 94 182 239q30 36 36 42q7 6 20.5 14.5t20.5 14.5q5 1 51.5 3.5t82 5t79 6t68.5 7t25 7.5q0 6 -87 6q-90 0 -199 -7q8 18 2 24z" />
    <glyph glyph-name="F" unicode="F" horiz-adv-x="729" 
d="M499 503q7 13 6 27t-11 14q-21 1 -34 -47q-14 -3 -49.5 -9t-62 -10.5t-28.5 -4.5q-5 1 -16 4t-18 2q-11 -2 -17.5 -8.5t-5.5 -13.5t9.5 -11t19.5 -2q7 1 33 11q26 5 127 17q-30 -63 -104.5 -197.5t-94.5 -174.5q-11 -2 -60 -11t-84 -14.5t-44 -4.5q-6 0 -18 3.5t-20 2.5
q-12 -1 -20 -7t-7 -13.5t10 -12t22 -2.5q9 1 37 10q3 1 38.5 5.5t77 9.5t54.5 7q-68 -133 -100 -229q-18 -56 -14 -57q2 -1 8 10.5t19 41.5q54 117 119 238q221 30 342 42q101 9 101 12q0 2 -12 3.5t-36 2.5t-54 1q-138 -2 -326 -33q90 169 128 245q13 26 28 58t22 46.5
t12 20.5q156 17 336 27q90 5 91 9q0 7 -91 10q-100 3 -220 -7q-43 -4 -93 -11z" />
    <glyph glyph-name="G" unicode="G" horiz-adv-x="629" 
d="M551 430q1 56 -38.5 81.5t-98.5 11.5q-87 -22 -182 -110q-78 -71 -135 -164.5t-82 -202.5q-10 -42 -13 -82t1.5 -81t28 -67t64.5 -29q37 -2 82 17q89 38 170 129q79 87 103 171q74 8 161 12q67 3 67 7q1 7 -67 12q-82 6 -175 -5q-59 -7 -124 -23q-15 -4 -31.5 -8.5
t-24.5 -6.5t-10 -2q-3 1 -12.5 3.5t-14.5 1.5q-11 -4 -13.5 -14t5 -17t18.5 -4q5 1 23 12q57 17 191 32q-30 -66 -80.5 -126.5t-111.5 -103.5q-67 -49 -121 -59q-30 -6 -52 1t-32.5 25t-16 41t-4 52.5t5 56t10.5 53.5q24 104 78 194t127 159q91 87 171 107q42 11 65 0
q16 -8 22.5 -24.5t10 -46t6.5 -40.5q3 -14 9.5 -15t12.5 13q7 17 7 39z" />
    <glyph glyph-name="H" unicode="H" horiz-adv-x="715" 
d="M535 158q17 -1 41.5 -2t55 -2t51 -0.5t20.5 3.5q-1 5 -157 23q34 62 83 146q67 113 75 122q4 5 17 15t18 19q6 9 8.5 19.5t0 18t-10.5 8.5q-5 0 -10.5 -2.5t-10 -8t-8 -10.5t-7.5 -13t-6 -13t-5 -13t-4 -10q-5 -8 -13 -20.5t-25.5 -39.5t-37.5 -59q-58 -89 -94 -156
q-169 18 -278 19q41 90 79 165q38 73 47 82q4 4 15 12t16 16q8 12 9 23.5t-5.5 16.5t-17 0t-18.5 -17q-6 -11 -18 -42q-1 -1 -7.5 -12t-17.5 -29.5t-22 -37.5q-49 -88 -91 -178q-17 0 -56 -2t-70 -4t-34 -2q-5 1 -18 5t-21 3q-12 -1 -19 -7.5t-4.5 -14t12.5 -11.5t21 -3
q7 1 36 10q2 0 28.5 1t61.5 1.5t52 0.5q-84 -188 -111 -337q-6 -29 -8 -55t-2 -38t2 -13q2 0 4.5 10.5t8.5 37.5t12 52q38 144 125 342q62 -2 277 -17q-74 -139 -102 -260q-14 -62 -16 -120q-2 -34 0.5 -64.5t5.5 -44t4.5 -14t1.5 13t1 44t5 61.5q6 56 21 115
q31 117 110 267z" />
    <glyph glyph-name="I" unicode="I" horiz-adv-x="509" 
d="M665 526q-117 5 -225 -18l-51 -11q-3 0 -10 4t-11 3q-9 -2 -10 -11.5t4.5 -17.5t14.5 -6q4 1 17 9q31 9 147 18q-5 -6 -21 -30q-1 -1 -33 -36.5t-45.5 -52t-49 -58.5t-55.5 -70.5t-51.5 -72.5t-50.5 -81t-39 -79.5t-30.5 -83t-13.5 -78.5l-107 -23q-4 0 -13.5 3.5
t-14.5 2.5q-13 -3 -16.5 -12.5t3.5 -17.5t20 -6q6 2 26 11q11 3 102 18q0 -27 4 -27q1 0 6 29q153 25 275 35q72 5 73 8q0 8 -73 11q-84 2 -186 -13q-38 -6 -85 -16q44 230 370 598q6 7 19 12.5t18 11.5q10 10 13 21q131 10 131 18q0 6 -52 8z" />
    <glyph glyph-name="J" unicode="J" horiz-adv-x="554" 
d="M750 550q0 4 -26 6t-54 2q-67 0 -146 -10q-45 -6 -119 -20q-59 -11 -63 -10t-12 4.5t-12 3.5q-12 -2 -15 -11.5t2.5 -18t17.5 -6.5q5 1 23 9q2 1 62 8q86 11 147 18q-18 -17 -41 -51.5t-33 -52t-33 -61.5q-158 -253 -207 -340q-9 -1 -17 -1q53 200 -39 225
q-34 10 -73 -11q-36 -19 -64 -52t-41 -72q-10 -25 -6.5 -52t20.5 -40q40 -32 169 -21q-29 -96 -84 -220q-22 -40 -22 -41q1 0 3 -1l-1 -2q1 -1 4 -3t4 -3q2 -1 6 -2.5t5 -2.5q1 2 2 2t3 -1q6 17 16 37.5t17 33.5t20 36.5t18 32.5l87 143q51 8 140 25.5t114 21.5q18 3 18 4
t-25.5 -1t-63 -7t-61.5 -8.5t-40 -5.5q-39 -5 -70 -9l259 423l-261 -424q-4 0 -10 -1q40 72 105 179q87 143 94 153q12 16 35 44t37 49q36 55 40 79q3 1 24.5 3t44.5 4t47 5t39.5 6t15.5 5zM124 210q18 11 41.5 10t35.5 -16q26 -33 9 -128q-8 -41 -14 -60q-129 -9 -161 18
q-22 19 -6 67q12 33 38 63t57 46zM266 5l-64 -104q18 35 56 103l3 0.5t5 0.5zM230 0q-4 -6 -12 -20l-12 -21q7 20 13 40q5 1 11 1z" />
    <glyph glyph-name="K" unicode="K" horiz-adv-x="645" 
d="M442 499q3 34 -20.5 45.5t-54.5 -0.5q-43 -13 -125 -61q-24 -14 -27 -16q-7 -3 -29 -10.5t-33 -15.5q-19 -12 -29 -25.5t-5.5 -19.5t20 -1.5t34.5 16.5q5 4 55 42q6 4 17 10.5t34.5 19.5t44.5 22.5t42.5 17t35.5 6t17 -12.5q4 -18 -13 -62q-8 -21 -18 -43t-17.5 -37
t-23 -41.5t-20.5 -35t-24 -39.5t-22 -36q-3 -1 -9.5 -4t-11.5 -5t-12.5 -6t-11 -8t-8 -9.5t-3.5 -11t3 -12.5q4 -6 10 -12q-134 -216 -172 -285q-1 -2 -7.5 -13.5t-7.5 -13.5t-6.5 -12t-7 -13l-6 -12t-6 -13.5t-5 -12.5t-5.5 -14l-4.5 -13.5t-5.5 -15.5q-2 -8 -4 -22.5
t1 -19.5q1 0 2 3.5t2 8.5t1 6q8 28 35 77q29 53 91 152q49 76 56 86t70 110q57 -43 99 -85q176 -176 296 -253q52 -32 54 -29q1 1 -6 7t-26 21q-10 7 -15 11q-68 52 -124 104q-59 53 -160 157q-43 44 -103 90l26 42q86 45 161 97q16 12 79.5 58t94.5 66q27 17 37 22
q12 5 29.5 9t30.5 10q19 10 30 20t9 17q-3 7 -19.5 6t-35.5 -10q-20 -10 -56 -37q-36 -22 -151.5 -100.5t-182.5 -113.5q77 127 103 199q11 32 13 54z" />
    <glyph glyph-name="L" unicode="L" horiz-adv-x="479" 
d="M164 -69q-20 -28 -41 -51q-22 -23 -41 -35q-12 -7 -24.5 -10t-22.5 3.5t-9 25.5q2 14 10.5 25t23.5 17.5t27.5 10t29.5 7.5q22 5 47 7zM498 479q21 24 31 40q12 19 7.5 24.5t-24.5 -5.5q-47 -27 -97 -119q-33 -52 -60 -106q-20 -39 -61 -131t-64 -136q-26 -52 -47 -86
q-138 -8 -172 -62q-20 -30 -5.5 -63t50.5 -28q41 5 86 55q29 32 55 73q78 6 216 -1q70 -4 195.5 -14.5t165.5 -13.5q70 -5 69 -1q-1 2 -29 6q-109 16 -173.5 24.5t-168 17.5t-190.5 9q-41 1 -69 0q18 30 39 73q22 45 61.5 137.5t58.5 131.5q38 78 62 108q12 16 32.5 35
t31.5 32z" />
    <glyph glyph-name="M" unicode="M" horiz-adv-x="894" 
d="M391 -63q1 6 11 28q33 75 118.5 224.5t120.5 234.5q1 2 4 8.5t5 11.5t4.5 12.5t3 13.5t0.5 12.5t-3 11t-9 7.5q-3 2 -6.5 2t-7 -1t-6 -1.5t-6 -3t-5.5 -3.5t-5.5 -4l-3.5 -3q-33 -25 -100 -94q-65 -68 -191.5 -207.5t-191.5 -206.5q-48 -49 -71 -69q-9 -7 -10 -8
q0 2 5 13q28 64 86 160q46 77 134 210.5t126 195.5q18 31 28 50q6 9 4 21t-18 9q-18 -2 -61 -26q-30 -16 -112 -64q-138 -78 -211 -152q-27 -27 -22 -33q3 0 5 -0.5t8 2.5l9 4.5t8 5t6 3.5q55 32 152.5 104t130.5 94q58 35 83 42q1 1 1.5 1h1.5q-2 -3 -14 -25
q-18 -31 -57 -91q-13 -20 -81.5 -122t-110.5 -168.5t-78 -133.5q-24 -43 -40 -78q-20 -44 5 -49q3 -2 8 0t6.5 2t6.5 3t6 4t5 4t5 4q13 10 25 21t27 26t21.5 22t26 27.5t22.5 23.5q43 46 157.5 171t178.5 191l16 16t17 17.5t15.5 16t17.5 16.5t17 14t19 15l2 1q-1 -1 -2 -7
q-7 -23 -28 -66q-33 -71 -103.5 -198.5t-100.5 -188.5q-26 -53 -30 -74q-3 -16 7.5 -24.5t24.5 -0.5q7 4 13.5 8.5t13.5 11.5t10.5 10t12.5 12.5t11 11.5q56 57 169.5 188.5t178.5 195.5q43 43 62 53q1 1 5 2q1 -8 -3 -25q-4 -18 -11 -40t-13 -37t-15.5 -39.5t-14.5 -35.5
q-47 -123 -61 -188q-6 -26 -8.5 -47t-1 -44t12 -38.5t29.5 -21.5q7 -2 20 -3t13 1l-6.5 1t-14 2.5t-10.5 2.5q-54 22 -23 144q16 61 59 168.5t54 139.5q1 1 3.5 8.5t4.5 13t4.5 14t2.5 15t-0.5 13t-4 11t-10.5 5.5q-11 2 -31 -11q-21 -15 -57 -49q-73 -71 -185.5 -199.5
t-165.5 -182.5q-32 -32 -48 -44zM384 -67q-1 -1 -1 0h1z" />
    <glyph glyph-name="N" unicode="N" horiz-adv-x="660" 
d="M670 499zM26 -136q0 -1 -1 -2q1 1 1 2zM332 538q-133 -75 -195 -164q-17 -23 -13 -28q5 -5 29 11q32 23 91.5 81.5t94.5 81.5q38 24 48 12q11 -12 -8 -58q-14 -33 -44 -85q-49 -85 -156.5 -242t-124.5 -183q-2 -3 -8.5 -13t-9 -13.5t-8 -12.5t-8.5 -14.5t-7 -13.5t-7 -15
q-6 -13 -6 -22q0 -15 14.5 -16t22.5 7q19 14 62 58q66 69 211.5 232t227.5 245q69 70 106 96q19 13 27 15q0 -11 -2 -24q-5 -29 -28 -84q-16 -40 -49 -109.5t-57 -127.5t-39 -115q-9 -35 -12 -67.5t5.5 -64.5t29.5 -49q34 -29 99 -27q16 0 46 4.5t29 7.5l-15 -0.5t-34 -2
t-26 -0.5q-115 3 -120 95q-2 40 15 99q14 50 39 107q34 72 87 188q27 57 31 68q-17 -37 -56.5 -122t-57.5 -124q10 21 28 60q56 122 88 191q15 37 21 69q5 25 -2 42t-31 9q-18 -7 -49 -31q-52 -42 -146 -141q-67 -69 -194 -211t-191 -210q-40 -42 -48 -48q2 3 2 4
q12 23 41 68q13 20 120.5 180.5t157.5 247.5q30 53 44 88q30 74 -9 86q-20 5 -56 -15zM672 400l49 104q-11 -23 -51 -109q1 2 2 5z" />
    <glyph glyph-name="O" unicode="O" horiz-adv-x="557" 
d="M415 106q-11 -2 -37 -8t-45.5 -10t-28.5 -6q-58 -10 -103 -10q-49 0 -83 12q17 21 36 39q7 7 31.5 28.5t30.5 26.5q42 39 70 70q16 17 13 22q-3 7 -21.5 -1.5t-30.5 -16.5q-62 -42 -135 -146q-6 -8 -12 -15q-54 27 -52 92q2 48 35 107q31 57 83 109q84 83 171 107
q63 17 112 -3q46 -18 67 -57t11 -98q-13 -77 -72 -178q-19 -32 -40 -64zM106 69q32 -11 73.5 -12t83.5 6t76.5 15.5t65.5 18.5q3 1 5 2q-82 -120 -187 -211q-51 -44 -92 -66q-64 -35 -89 -10q-20 20 -20.5 55t9 62.5t22.5 54.5q25 47 53 85zM89 76q-28 -38 -49.5 -77
t-32.5 -79q-9 -40 -4.5 -74.5t30.5 -53t65.5 -8t89.5 46.5q101 72 202 200q107 135 148 253q35 101 8 165q-23 54 -84.5 78t-131.5 4q-94 -27 -181 -115q-84 -85 -112 -175q-11 -34 -8 -71.5t20 -60.5q15 -20 40 -33z" />
    <glyph glyph-name="P" unicode="P" horiz-adv-x="603" 
d="M705 482q-26 66 -205 37q-147 -25 -313 -92q-104 -42 -160 -80q-12 -9 -18.5 -14t-15 -14.5t-12.5 -19.5q-8 -24 14 -36.5t52 -15.5q65 -7 184 8q28 3 50 6.5t32.5 6t10 4t-35 -0.5t-79.5 -5t-59 -3q-29 -2 -69 -0.5t-64 10.5q-9 3 -12.5 7.5t-0.5 10.5t6.5 10.5t11.5 11
t11 8.5l9 6q54 36 158 76q165 65 309 89q3 1 8 2q108 18 149 -2q15 -8 17.5 -23t-9 -35t-23 -36.5t-32.5 -38.5t-28 -29l-19 -19q-29 -27 -64 -57q-27 -23 -56 -43.5t-44 -30.5t-21 -13q-17 -8 -38 -14.5t-34 -12.5q17 41 43 95.5t38 64.5q4 3 13.5 7t12.5 9q6 8 5.5 17
t-6.5 14t-15 3.5t-15 -10.5q-5 -6 -13 -29q-41 -65 -47 -76q-29 -54 -56 -121q-13 -10 -17.5 -17.5t5.5 -12.5q-30 -77 -63 -185q-25 -80 -20 -83q6 -3 38 73q11 28 22.5 56.5t27 70t27.5 72.5q39 13 107 65q74 47 120 85q107 87 152 148q12 16 17.5 23.5t11.5 24.5t5 34
q-1 7 -3 14z" />
    <glyph glyph-name="Q" unicode="Q" horiz-adv-x="471" 
d="M316 134q-8 -1 -33.5 -3.5t-37 -3t-27.5 2.5t-25 10q-11 10 -11 29t5 34.5t12 28.5q31 57 103 120q87 76 162 102q52 19 59 -3q6 -16 -7 -52q-16 -46 -66 -109q-19 -23 -57 -65.5t-54 -63.5q-13 -15 -23 -27zM377 514q15 10 14 14q-2 6 -21 4q-50 -8 -106 -62
q-19 -18 -39.5 -43.5t-30.5 -40t-35 -49.5q-52 -76 -99 -175t-58 -187q-2 -25 -0.5 -48t16.5 -38t40 -12q22 3 50 20q29 18 65 49q61 54 158 166h9q22 -1 23 -11q4 -43 -18 -112q-13 -41 -30.5 -84.5t-41 -94t-34.5 -78.5q-20 -47 -25 -72q-3 -18 -1 -19l2.5 8t6 17.5
t4.5 12.5q16 39 66 141t71 163q24 72 21 119q-1 27 -34 32q38 44 60 69q83 92 113 148q24 43 28 80q4 31 -15 47t-52 9q-27 -4 -61 -21q-69 -34 -138 -95q-74 -66 -107 -127q-10 -19 -16 -40t-3 -44.5t19 -37.5q19 -15 53.5 -16t64.5 4q-76 -90 -139 -146q-51 -45 -84 -59
q-34 -13 -45 9q-9 19 -4 59q6 53 34 127q13 37 31 75q39 83 86 151q26 39 54 66q56 55 148 122z" />
    <glyph glyph-name="R" unicode="R" horiz-adv-x="633" 
d="M186 474q-68 -26 -112 -59q-17 -13 -39 -36q-40 -43 -34 -88q3 -26 21 -49.5t39 -34.5q17 -9 20.5 -3.5t-5.5 19.5l-13 19.5t-15 24.5t-10 23.5t-5 30t8 28.5q5 12 13 23q55 65 205 104q59 15 124 23t138 2.5t118 -30.5q39 -22 47 -55q3 -12 -2 -24t-10.5 -17.5
t-15.5 -14.5q-12 -11 -68 -45q-163 -100 -326 -143q-7 -2 -27 -6t-33 -7t-26 -11t-17 -19q-5 -17 17 -42q14 -16 31 -32t39.5 -36.5t32.5 -30.5q62 -59 124 -123q89 -91 207 -135q34 -13 35 -10q1 1 -23 12q-6 3 -9 5q-53 25 -89 49q-58 38 -108 92q-37 41 -200 202
q-1 2 -8 8.5t-10 9.5t-7.5 9t-6.5 11l-2 3q4 4 10.5 6.5t11.5 4t14 3.5t12 2q206 51 406 175l24 16t21.5 17.5t19.5 24.5t10 28q8 58 -62 95q-58 31 -150.5 33.5t-172 -13t-142.5 -39.5zM320 414q-22 14 -41 -40q-1 -1 -1 -2q-1 -1 -5 -7t-11.5 -17.5t-15.5 -22.5
q-65 -98 -118 -193t-82 -180q-6 -21 -10.5 -38.5t-5 -25t0.5 -9.5q1 0 2.5 2.5t4.5 9t6 13.5t8.5 19t10.5 22q64 139 200 369q27 45 32 49q3 3 13 8.5t13 11.5q6 8 5.5 17t-6.5 14z" />
    <glyph glyph-name="S" unicode="S" horiz-adv-x="707" 
d="M642 99q1 0 1 1q0 -1 -1 -1zM47 -124q4 2 10 4.5t9 3.5q68 31 231 90q78 29 218 58q11 2 18 4q-46 -22 -135 -55q-191 -71 -332 -101q-3 0 -9.5 -1.5t-9.5 -2.5zM16 -126h1h-1zM20 -140zM627 387q-45 -25 -89.5 -56t-39.5 -39q5 -9 56 15t92 50q62 41 120 91q60 52 27 74
q-23 15 -96 2q-124 -22 -300 -96q-160 -67 -259 -137q-76 -54 -101 -101q-6 -13 -10 -26t-1 -27.5t15 -20.5q24 -12 99 -19q87 -8 257.5 -12t206.5 -5q7 -1 10 -1q-31 -19 -70 -38q-29 0 -125 -19q-86 -17 -246 -75q-6 -2 -38.5 -13.5t-46.5 -16.5t-37.5 -16t-38.5 -21
q-18 -12 -9 -22q3 -4 9 -5.5t15 -0.5t15 1.5t16.5 3t11.5 2.5q75 14 186 48q229 70 354 140q29 16 49 32q6 3 4.5 12t-8.5 10q-9 3 -50 5q-45 2 -211 5.5t-251 11.5q-3 0 -18.5 1.5t-21 2t-17 2.5t-19 4t-14.5 6q-2 1 -2 2q-3 25 23 59q42 55 153 119q162 94 361 157
q88 27 142 34q55 6 54 -9q0 -5 -5 -12q-11 -16 -29.5 -31t-31.5 -22.5t-37 -20.5q-5 -2 -23.5 -12t-30.5 -16zM646 76z" />
    <glyph glyph-name="T" unicode="T" horiz-adv-x="577" 
d="M613 402zM24 290zM704 484q24 2 73 1.5t72 1.5q42 3 62 7q15 2 16 7t-13 11q-13 6 -27.5 9t-33 2.5t-32 -0.5t-36 -3.5t-31.5 -5.5t-32.5 -6.5t-26.5 -5.5q-150 -21 -308 -55.5t-267 -74.5q-75 -27 -103 -51q-5 -5 -10 -13.5t-7 -17.5t3.5 -16.5t18.5 -9.5q18 -4 59 1
q78 9 257 50q26 6 109.5 26t129.5 30q-156 -136 -268 -294q-70 -100 -111 -193q-22 -51 -35 -98q-7 -27 -10.5 -51.5t-3.5 -32.5v-11q1 -1 3 9t7.5 34t13.5 49q15 46 38 94q44 91 113 185.5t149 175.5q77 79 158 145q8 6 4 14.5t-14 7.5q-13 -1 -26 -3t-32 -7t-24 -6
q-34 -8 -127.5 -30.5t-160.5 -36.5t-132 -25q-60 -10 -84 -9q-8 1 -10 1q0 8 20 21q40 27 143 60q166 54 385 94q95 17 131 20z" />
    <glyph glyph-name="U" unicode="U" horiz-adv-x="527" 
d="M597 433zM223 390q7 11 22 30t25 35t15 35q4 14 -8 26.5t-25 0.5q-12 -10 -25.5 -35.5t-6.5 -30.5q2 -3 7 -1q-3 -6 -7.5 -17t-8.5 -20t-8 -17l-14 -28l-27 -52q-74 -147 -103 -235q0 -1 -3.5 -10.5t-4 -12t-3.5 -11.5t-3.5 -13t-2.5 -12.5t-2.5 -14t-1 -13t0 -15
t0.5 -15.5q4 -29 24 -44t47 -4q29 12 76 56q72 69 186.5 211.5t150.5 182.5q26 29 35 38q-45 -65 -52 -79q-4 -7 -29.5 -55t-34.5 -66t-24.5 -55t-25.5 -68q-17 -61 -14 -107q6 -75 67 -105q10 -5 19 -7.5t13 -2.5h4q0 1 -3.5 2t-12.5 5t-18 9q-53 31 -55 97q-2 43 17 101
q10 31 26 65.5t27 55.5t34.5 63t30.5 55q11 19 38.5 55.5t38.5 58.5q10 21 -4 30q-4 2 -7 2q-4 0 -8.5 -1t-9 -3.5t-6.5 -3.5t-6.5 -5.5t-5.5 -4.5q-30 -25 -88 -92q-36 -43 -113 -137.5t-119 -142.5q-63 -73 -102 -105q-30 -24 -47 -27q-13 -2 -19 8t-6 27t1.5 28.5
t3.5 21.5q12 63 57 166q60 139 98 203z" />
    <glyph glyph-name="V" unicode="V" horiz-adv-x="492" 
d="M126 500l-1 1zM158 487q4 29 -13 42t-41 0q-14 -7 -29.5 -25t-8.5 -25q4 -4 15 0t25 11.5t19 8.5l1 1q11 -13 3 -61q-13 -79 -61.5 -235t-62.5 -239q-4 -22 -4.5 -42t2.5 -42.5t18 -31.5t40 -1q28 10 70 47q54 48 132 139q48 56 113 143q74 98 117 163q32 47 56 88.5
t33.5 62t7.5 21.5q-1 1 -5 -5.5t-15 -22.5q-6 -10 -10 -15q-68 -106 -202 -278q-124 -157 -208 -241l-5 -5q-52 -52 -84 -68q-28 -13 -33 10t2 74q14 88 59 244t58 231q2 8 6 24.5t5 26.5z" />
    <glyph glyph-name="W" unicode="W" horiz-adv-x="902" 
d="M293 499h1h2h-1h-2zM204 318q7 12 49.5 67t57.5 95q7 12 5 31t-19 19t-38 -23q-16 -17 -12 -22q3 -4 33 9q-2 -6 -8 -16t-7 -12q-59 -110 -77 -138q-123 -196 -157 -269q-1 -2 -5 -11t-5.5 -12t-5 -11.5t-5 -12.5t-4 -12t-3.5 -14t-2 -14t-1 -15q0 -27 16.5 -43t43.5 -9
q16 5 32.5 15t24.5 16.5t25 21.5q65 56 168.5 175t134.5 151q30 31 43 39q-1 -5 -7 -20q-11 -26 -42 -83.5t-49 -105t-23 -101.5q-6 -73 24.5 -124.5t95.5 -49.5q241 6 375 345q69 175 20 268q-30 55 -99 67q-16 3 -29.5 3.5t-18.5 -0.5l-6 -1q0 -1 10.5 -2.5t23.5 -3.5
t18 -3q103 -25 105 -139q1 -77 -42 -181q-7 -18 -25 -49t-47 -71t-62.5 -79t-72.5 -70.5t-76.5 -48.5t-76 -9t-69.5 45q-21 25 -21.5 77t12.5 88q16 55 78 174q22 43 28 61q6 17 -1.5 32t-25.5 9q-13 -4 -32 -22q-22 -19 -58 -60q-27 -30 -72.5 -82.5t-84 -96.5t-74.5 -79
q-41 -41 -70 -62q-1 -1 -6 -4.5t-6.5 -4.5l-6 -4t-7.5 -4.5t-7 -3t-8 -2.5t-9 -1q-21 0 -22.5 23.5t12.5 60t23 56t17 35.5q49 93 130 218z" />
    <glyph glyph-name="X" unicode="X" horiz-adv-x="1028" 
d="M525 259q44 38 83 69q82 65 170 116q83 48 137 57q26 5 44.5 -1t27.5 -20.5t12.5 -33.5t0.5 -43.5t-7.5 -47t-12.5 -48t-14 -42t-12 -33.5q-78 -193 -201 -348q-58 -75 -104 -105q-44 -29 -66 -7q-25 26 -39.5 67.5t-18 95.5t-3.5 102t2 115t1 107zM454 468
q-25 13 -56.5 10t-57 -12.5t-42.5 -21.5t-15 -17t23 -1q2 1 32 7.5t43.5 8t36 -0.5t36.5 -12q33 -23 45 -82q5 -30 7 -74q-23 -20 -51 -45q-126 -116 -249 -238q-102 -103 -155 -175q-13 -17 -33.5 -50.5t-17.5 -35.5q1 0 1.5 0.5t2 2.5t2.5 4.5t4 6.5t5 7q13 20 29 41
t30 38t35.5 40t34.5 36.5t39 38.5t36.5 35.5t39 37t36.5 33.5q126 120 211 194q1 -4 1 -8q0 -32 -2.5 -101t-2.5 -113.5t4.5 -100t19.5 -97t41 -68.5q18 -19 45 -17q33 4 77 40q65 54 141 168q92 135 149 275q39 99 48 169q8 71 -21 109.5t-96 26.5q-59 -11 -145 -61
q-112 -65 -241 -177q-2 34 -7 62q-8 45 -21 73.5t-42 43.5z" />
    <glyph glyph-name="Y" unicode="Y" horiz-adv-x="505" 
d="M625 463zM609 478v2v-2zM180 382q55 59 79 96q1 2 4.5 7.5t5 7.5t4 8t2 9t-0.5 9t-6 4q-3 0 -2 -3l2 -3q0 -1 -3 1l-1 1q-15 -10 -48 -44q-53 -54 -75 -92q-17 -30 -37 -68q0 -1 -7.5 -13.5t-9.5 -16t-9.5 -16t-10.5 -18.5t-9.5 -18.5t-10 -20t-9 -19t-9.5 -20.5t-8 -19
t-6 -20q-5 -14 -6.5 -27.5t0.5 -27.5t12 -22t27 -7q25 1 68 23q38 20 82 50t67.5 48t74.5 58q25 20 185 154q-8 -9 -18.5 -20.5t-16 -17.5t-7.5 -8q-45 -50 -77 -96q-178 -245 -394 -495l-2.5 -3t-3.5 -4t-3 -4t-2.5 -5t-0.5 -4.5t1 -5t4 -4.5q4 -3 7 -3q6 0 16 8
q23 19 115 109q11 10 56 55l120 122q60 59 113 99q17 13 17 14t-19 -10q-51 -29 -120 -93q-21 -20 -83.5 -81t-114.5 -110q169 198 315 400q24 33 54 68t69.5 78t58.5 65l7 7t9 10.5t6.5 10.5t3 11.5t-5.5 10.5q-4 2 -8 2t-8 -2t-6.5 -3.5t-6.5 -5t-5 -4.5q-6 -4 -138 -117
q-169 -143 -265 -211q-68 -48 -109 -65q-52 -22 -56 5q-2 15 6 43q14 45 55 120q24 44 37 63.5t41 55.5z" />
    <glyph glyph-name="Z" unicode="Z" horiz-adv-x="618" 
d="M265 -4q-61 -51 -120 -75q-18 -8 -36 -13t-41.5 -5t-35.5 12q-14 14 -1 29.5t31 25.5q65 36 193 27q5 -1 10 -1zM503 520q-17 -1 -45 -2.5t-49 -4t-41 -6.5q-40 -8 -64 -17q-12 -5 -12 -10t13 -8q7 -2 14 -3t15 -1h14t15.5 1.5t15 2.5t15.5 3t13.5 3t14 3.5t12.5 2.5
q8 2 32.5 8t36 8.5t32 6t39.5 5.5t40 3q43 1 49 -7q1 -2 1 -7q0 -16 -18 -49q-21 -38 -63 -94q-16 -21 -108 -133q-4 -5 -6 -8q-89 -120 -175 -196q-1 -2 -3 -3l-34 4q-179 15 -241 -54q-14 -15 -16 -35t13 -37q18 -17 49 -18.5t56.5 5.5t48.5 18q66 30 135 91
q84 -11 187 -42q85 -25 174 -33.5t208 -10.5q39 0 51.5 1t-1 3t-50.5 5q-9 1 -60 5t-67 5.5t-59 6.5t-67 9.5t-58.5 12t-63.5 16.5q-93 30 -171 43q81 76 163 190q1 0 41 50q69 85 106 142q37 55 46 87t-9 44q-25 14 -114 2q-19 -2 -34 -4.5z" />
    <glyph glyph-name="bracketleft" unicode="[" horiz-adv-x="295" 
d="M117 -85q14 2 22 9q8 8 6 15q-1 7 -12 10q-9 3 -21 1q-2 0 -17 -3q-10 -2 -16 -3h-3q-5 1 -10 3q-5 3 -8.5 6t-6.5 8q-5 8 -7 23t0 36q2 19 7 46q3 18 25 114q6 23 11 51l16 76q-2 -7 -7 -32l-7 -34q2 11 16 78q7 34 12 54q7 26 15 42q9 19 19 31q12 12 27 19q15 8 39 10
q13 2 41 2q15 0 15 2t-14 6q-21 5 -43 5q-25 0 -45 -8q-20 -7 -35 -22q-14 -14 -25 -35q-9 -19 -17 -45q-7 -23 -15 -55q-4 -20 -18 -88q-7 -35 -10 -51q-18 -81 -23 -116q-5 -27 -6 -48q-1 -23 2 -40q3 -19 11 -32q4 -6 10 -11t14 -9q2 0 5 -1t5 -2t3.5 -1.5l1.5 -0.5h2
q18 -7 20 -8q12 -4 21 -2z" />
    <glyph glyph-name="backslash" unicode="\" horiz-adv-x="210" 
d="M59 468q-3 13 4.5 20t17.5 4t13 -16q2 -6 1 -28q0 -2 2.5 -10.5t7 -25.5t7.5 -33q46 -183 67 -321q11 -75 5 -72.5t-24 68.5q-28 110 -68 321q-13 64 -16 70q-2 3 -9 10t-8 13z" />
    <glyph glyph-name="bracketright" unicode="]" horiz-adv-x="295" 
d="M178 489q-14 -2 -23 -9q-7 -8 -5 -15q1 -7 12 -10q9 -3 21 -1q2 0 17 3q10 2 16 3h3q5 -1 10 -3q5 -3 8.5 -6t6.5 -8q5 -8 7 -23t0 -36q-2 -19 -7 -46q-3 -18 -25 -114q-6 -22 -12 -51l-15 -76q2 7 7 32l7 34q-2 -11 -16 -78q-7 -34 -12 -54q-7 -26 -15 -42
q-9 -19 -19 -30q-12 -13 -27 -20q-15 -8 -39 -10q-13 -2 -41 -2q-15 0 -15 -2t14 -6q21 -5 43 -5q25 0 45 8q20 7 35 22q14 14 25 35q9 19 17 45q7 23 15 55q4 20 18 88q7 35 10 51q18 81 23 116q4 27 6 48q1 23 -2 40q-3 19 -11 32q-4 6 -10 11t-14 9q-2 1 -5 1.5t-5 1.5
t-3.5 1.5l-1.5 0.5h-2q-18 7 -20 8q-12 4 -21 2z" />
    <glyph glyph-name="asciicircum" unicode="^" horiz-adv-x="131" 
d="M23 355q-5 -7 9 -18t20 -4q1 2 2 12q15 20 28 38q1 -2 1 -4q2 -44 10 -44q7 0 12 44q2 15 3 29v10q1 4 0 7v4q0 1 -2.5 5t-10.5 5q-6 0 -8 -2q-4 -4 -5 -6q-2 -2 -4 -6q-4 -6 -11 -19q-26 -49 -29 -50t-6 -0.5t-5.5 0.5t-3.5 -1zM82 422z" />
    <glyph glyph-name="underscore" unicode="_" horiz-adv-x="283" 
d="M74 21q-34 -4 -35 -3q-2 1 -6 6t-7 4q-6 0 -8 -9t1 -18t9 -9q3 1 12 7q15 -1 37.5 -1.5t69 -0.5t76.5 4t29 12q-2 11 -79 11.5t-99 -3.5z" />
    <glyph glyph-name="grave" unicode="`" horiz-adv-x="168" 
d="M43 472q3 -2 2 -9l1 -1.5t3.5 -3.5t4.5 -4q31 -34 36 -63q3 -18 -12 -8q-6 3 -10 8q-13 14 -31 50q-3 6 -7 9q-7 5 -4 10t9.5 9t7.5 3z" />
    <glyph glyph-name="a" unicode="a" horiz-adv-x="282" 
d="M105 136q10 1 13 -2.5t4 -10.5t3 -10q6 -7 14 -10t16 4q11 17 -3.5 32t-35.5 16q-30 0 -60 -16q-54 -29 -70 -69q-7 -17 1.5 -31t26.5 -13q10 0 21 2t17 4.5l18 7.5t15 7q31 13 47 15q9 1 10 1q0 -3 -1 -9t-2 -10t-1.5 -10t-0.5 -10t0.5 -9.5t3 -7.5t5.5 -5t8 -2.5
t12 1.5q19 4 48.5 22t49.5 34t19 18q-2 2 -19 -6t-44 -21.5t-44 -20.5q-12 -4 -16 -4q7 30 8 32q3 18 -8.5 27t-30.5 6q-21 -3 -53.5 -16.5t-40.5 -16.5q-27 -7 -27 0q-1 9 12 26q31 41 73 53q7 2 12 2z" />
    <glyph glyph-name="b" unicode="b" horiz-adv-x="202" 
d="M85 74q-6 -13 -10 -20q-27 -44 -50 -56q-35 -18 -12 68q1 1 1 2q7 26 16 52q6 0 16 6q15 10 30 28.5t32.5 46.5t19.5 31q84 121 107 195q3 9 4 18q3 15 -4 25.5t-22 5.5q-26 -7 -56 -45q-56 -71 -115 -210q-48 -111 -60 -181q-12 -62 20 -69q21 -5 45 16q35 29 57 78
q42 -13 83 4q17 8 16 10q0 1 -18 -4q-42 -10 -75 5q6 15 7.5 29.5t-5.5 24t-25 3.5q-10 -3 -17 -12t-5 -20q3 -19 20 -31zM93 91q-4 4 -6 8q-10 17 3 20q8 2 8 -7t-5 -21zM216 454q4 -7 -10 -44q-29 -78 -93 -169q-11 -16 -34.5 -38t-29.5 -30q21 53 53 119q53 108 90 146
q18 18 24 16z" />
    <glyph glyph-name="c" unicode="c" horiz-adv-x="172" 
d="M72 154q-1 -4 -5.5 -11t-5.5 -11t3 -13q8 -11 19.5 -7t13.5 17q0 10 -9 35q-3 10 -13.5 13t-20.5 -4q-37 -25 -70 -105q-34 -86 8 -99q16 -5 38 5q14 7 31 19q4 3 37.5 25t55.5 38t20 19q-2 4 -38 -13q-46 -21 -89 -49q-1 -1 -7 -4.5t-9 -5.5t-8 -4.5t-10 -3.5t-10 -1
q-16 0 0 46.5t27 67.5q20 39 35 50q4 3 5 2z" />
    <glyph glyph-name="d" unicode="d" horiz-adv-x="256" 
d="M88 186q0 8 1 17q3 72 43 146q28 53 61 78q22 17 39 17q16 0 23 -8.5t5.5 -24t-4.5 -30t-11.5 -34t-12 -27.5t-8.5 -18q-35 -69 -80 -132q-1 1 -2 3q-19 23 -54 13zM113 90q19 -15 45 -19q14 -2 23.5 -1.5t14.5 1.5l4 2q0 1 -4 1t-14.5 1.5t-21.5 4.5q-22 6 -38 21
q75 91 126 189q31 61 38 102q6 34 -8 56.5t-46 21.5q-40 -1 -79 -46q-49 -56 -72 -141q-15 -55 -10 -104q-4 -2 -7.5 -4.5t-6.5 -5t-6.5 -6l-5.5 -5.5t-5.5 -7t-5 -6.5t-5.5 -7.5t-5 -8q-43 -59 -54 -100q-4 -16 0.5 -29t20 -12t33.5 14q30 20 72 68q9 10 17 20zM97 107
q-21 -26 -43 -49q-25 -26 -42 -39q-17 -12 -23 -10v0q-4 3 4 26q9 25 28 57q10 16 15.5 24t16.5 18.5t24 14.5q7 -24 20 -42zM106 119q-9 14 -13 33q8 1 17 1q10 -1 17 -6q-10 -15 -21 -28z" />
    <glyph glyph-name="e" unicode="e" horiz-adv-x="174" 
d="M94 171q-5 -24 -23 -50q-9 -13 -14 -16t-13.5 -4.5t-13.5 -4.5q-6 -5 -8 -13t1 -14q4 -7 12.5 -7.5t17.5 5.5q9 7 19 26q38 44 44 75q1 4 1 8q0 11 -10 16t-21 1q-24 -10 -54 -43q-20 -23 -33 -45t-17 -49q-5 -36 20 -60q60 -26 143 47q32 27 29 31q-2 2 -18 -7.5
t-36 -21.5t-26 -15q-50 -25 -78 -13q-23 26 12 84q27 44 58 65q1 1 8 5z" />
    <glyph glyph-name="f" unicode="f" horiz-adv-x="209" 
d="M-61 -249l1 -1zM228 429q1 -6 -4 -22q-18 -60 -85 -162q-19 -29 -27 -38q-13 -16 -29.5 -29.5t-29.5 -29.5q-42 -52 -30 -62q5 -6 22.5 5.5t35.5 33.5q20 24 49 74q68 99 97 159q18 37 22 59q4 20 -7.5 29.5t-29.5 -1.5q-19 -11 -50 -46q-167 -193 -233 -529
q0 -1 -3.5 -17t-5.5 -26t-4.5 -28t-1.5 -29.5t3 -23t9.5 -16t18.5 -1.5q12 3 22 14t14.5 19.5t11.5 24.5q50 111 59 228q1 3 1.5 12.5t1 14t2.5 10.5t5 8q4 4 41 7.5t71.5 6.5t34.5 4q-1 2 -63 1.5t-73 -2.5q-13 -3 -21.5 -13.5t-10.5 -20.5t-4.5 -31t-4.5 -29
q-19 -101 -60 -187q-16 -34 -28 -42q-4 -2 -5 -2q-2 10 7 64t14 75q75 341 238 513q1 1 6 6.5t7.5 8t7.5 6t9 4.5zM-62 -248h-1h1z" />
    <glyph glyph-name="g" unicode="g" horiz-adv-x="203" 
d="M51 142q9 8 21.5 13t25.5 3t21 -13q1 -2 5 -11t7.5 -14.5t8.5 -5.5q8 0 11 15t-1 28q-4 17 -19 27t-35 6q-12 -2 -23.5 -8.5t-16.5 -10.5t-17 -16q-48 -43 -54 -96q-2 -14 8.5 -21.5t25.5 -4.5q19 3 50 17q16 8 22 10q-19 -40 -46 -104q-88 -91 -126 -189q-1 -1 -2 -3
q-30 -77 -2 -94q4 -2 7.5 -2.5t7 1t6.5 3t6.5 5t5.5 6.5l5 7.5t4.5 7.5t4 7t3.5 6q9 15 17.5 31.5t18 37t15 32.5t16 38.5t13.5 34t15.5 39.5t14.5 35q40 42 86 79q7 6 15 12t12.5 9.5t8.5 6.5t5.5 5t0.5 2q-2 4 -48 -26q-32 -21 -65 -49q18 43 33 75q0 1 1 3.5t2 3.5
q5 4 9 7q-8 14 -10 16q-3 3 -5 7q-7 -4 -13 -15q-32 -21 -71 -36q-29 -11 -31 -5v3q4 47 46 85zM-71 -298v0q0 22 13 57q25 68 79 137q-39 -93 -66 -147q-20 -39 -26 -47z" />
    <glyph glyph-name="h" unicode="h" horiz-adv-x="250" 
d="M169 161zM-5 -7q0 4 4 22q8 47 42 134l10 24q9 -4 27 8t26 21q20 21 42 66q19 32 42.5 80t32.5 83q13 49 -12 51q-5 0 -8.5 -1t-6 -2t-6 -4.5l-4.5 -4.5t-4.5 -5.5l-3.5 -4.5q-41 -50 -96 -159q-54 -107 -87 -206q-21 -62 -23 -94q-2 -21 9 -31t31 2q17 12 52 54
q4 6 40 53t57 69q9 10 13 12q10 -8 -1 -69q-1 -4 -3.5 -14.5t-4 -18.5t-2.5 -18t2 -17.5t9 -10.5q12 -5 31.5 9.5t33.5 31.5t13 18t-15 -10t-30.5 -23.5t-22.5 -13.5q-9 -2 -3 25q0 1 0.5 2.5t0.5 2.5q1 5 6 22t7.5 30.5t4 29.5t-3.5 27.5t-17 16.5q-2 3 -7 1t-6.5 -1.5
t-6 -3t-5.5 -4.5l-5 -5l-4 -4q-24 -24 -65.5 -77t-62.5 -75q-1 0 -3.5 -3t-4 -4.5l-3.5 -3.5t-4 -3.5t-5 -3.5zM128 275q-9 -11 -26.5 -26.5t-24.5 -23.5q-1 0 -3.5 -3t-4.5 -5q52 120 108 205q18 28 27 36q0 -5 -4 -21q-9 -39 -31.5 -88.5t-40.5 -73.5z" />
    <glyph glyph-name="i" unicode="i" horiz-adv-x="151" 
d="M71 234q-7 9 -16.5 5.5t-20 -10.5t-10.5 -6q-1 1 -2.5 3.5t-2.5 4.5l-1 2q-2 -1 0.5 -9.5t5.5 -17t5 -8.5q0 1 1 7h1t3 0.5t4 0.5q13 3 25 11.5t8 16.5zM33 159q-14 6 -19.5 -2.5t-5.5 -24.5q-4 -10 -14 -31.5t-17.5 -41.5t-9.5 -40t7.5 -33.5t28.5 -10.5q15 3 35 14
q11 8 39 28.5t50.5 37.5l22.5 17q-3 3 -33.5 -13.5t-67.5 -36t-50 -20.5h-3q-7 20 5.5 65.5t24.5 57.5q2 2 9 6t8 7q3 6 -0.5 12t-9.5 9z" />
    <glyph glyph-name="j" unicode="j" horiz-adv-x="107" 
d="M-208 -314q-1 9 6 35q30 102 137 199l1 1q-56 -122 -101 -187q-26 -38 -42 -47zM43 122q5 17 3.5 30t-8.5 15q-8 3 -15 -5.5t-12 -26t-7.5 -28.5t-4.5 -28q-15 -49 -47 -123q-15 -10 -30 -22q-49 -40 -90 -93t-59 -112q-20 -62 11 -70q20 -4 46 25q27 29 59 87
q51 91 86 182q11 9 23 17.5t20 13.5t14.5 9.5t9 6.5t2.5 3q-1 1 -8 -1t-21.5 -9t-30.5 -17q12 35 25 74q9 28 22 48q9 14 12 24zM70 245q-7 9 -16.5 5.5t-20 -10.5l-10.5 -7q-1 2 -2.5 4.5t-2.5 4l-1 1.5q-1 0 1 -9t5.5 -17t4.5 -8t1 7h1t3.5 0.5t3.5 0.5q14 3 25.5 11.5
t7.5 16.5z" />
    <glyph glyph-name="k" unicode="k" horiz-adv-x="220" 
d="M151 446zM11 102q13 40 26 77q8 -3 15.5 2.5t14 18.5t9.5 20.5t8 20.5q70 127 87 184q6 11 3.5 26t-17.5 15q-2 0 -5 -1t-5 -2.5l-4 -3t-4 -4t-3 -3.5t-3 -4t-3 -4q-39 -52 -83 -163q-26 -67 -46 -139q-13 -47 -22 -89t-11 -62.5t0 -21t6 12t14 45.5q4 13 6 20
q11 -17 42.5 -21t58 0.5t52.5 11.5q22 6 39.5 13t25.5 11.5t7.5 6.5t-27.5 -2t-62 -9.5t-48 -6.5q-52 -2 -64 9q-12 12 41 49t68 39q4 0 13 -2t11 0q16 7 8.5 23.5t-22.5 9.5q-5 -2 -18 -14q-77 -34 -108 -63zM144 419q-14 -42 -41.5 -102t-41.5 -74q45 115 83 176z" />
    <glyph glyph-name="l" unicode="l" horiz-adv-x="156" 
d="M-37 -122q-1 3 -0.5 15t0.5 14q6 34 29 100q34 93 75 189q7 1 16.5 12t17.5 28q7 14 23 63q2 5 32 67.5t43 96.5q3 8 3 12q-4 3 -10 9q-9 0 -13 1q-4 -4 -15 -25q-85 -160 -163 -357q-41 -102 -55 -162q-5 -20 -7 -30t-0.5 -28t11.5 -24q6 -3 12 -3q4 0 7.5 0.5t7.5 2.5
t6.5 3t6.5 4t5 4l5 5l5 5q41 38 103 125q50 71 46 73q-1 1 -21 -22t-47 -55.5t-33 -39.5q-48 -56 -73 -74q-14 -10 -17 -9zM-38 -122zM-37 -122z" />
    <glyph glyph-name="m" unicode="m" horiz-adv-x="284" 
d="M-17 40zM-7 36l-1 -1zM96 142h2h-2zM201 149l1 1zM184 159q-1 1 0 1v-1zM82 37q3 9 10 28t11.5 33.5t7.5 28.5q8 39 -13 39q-14 -1 -29 -13t-29 -29q4 10 5 21q1 3 0.5 8.5t0.5 7.5q-6 2 -12 6q-7 0 -13 2v-1v-1q-11 -11 -19 -48q-4 -15 -13 -38t-14 -39q-2 -4 -2 -8
q-1 -1 1.5 -4.5t7.5 -6t8 -0.5q6 2 10 6.5t9 13t6 10.5t8 12t9.5 13t8.5 12t10 13.5t9.5 11t11 11.5t11.5 9q5 3 6 4q-1 -4 -7 -23q-4 -15 -11.5 -35.5t-14 -39.5t-10.5 -36q-3 -15 7.5 -24t22.5 5q11 10 35 48q11 16 24 37q11 18 28 38q-21 -51 -23 -80q-2 -20 6 -33.5
t27 -10.5q23 3 58 33q26 22 46 46q8 9 7 10.5t-11 -5.5q-7 -5 -24.5 -19.5t-33 -25.5t-30.5 -17q-13 -6 -20 -1t-5 21q4 27 23.5 69.5t24.5 55.5q2 8 -1 15.5t-11 6.5t-20 -13q-42 -41 -64 -76q-29 -47 -30 -48z" />
    <glyph glyph-name="n" unicode="n" horiz-adv-x="310" 
d="M154 154zM145 159v1v-1zM53 124q6 10 5.5 19.5t-7 13.5t-15 -0.5t-14.5 -14.5q-5 -9 -13 -35q0 -1 -3 -6t-6 -10.5t-7 -13t-6 -15t-3 -14t2.5 -11t10.5 -6.5q11 -2 28 12q19 15 56.5 51t59.5 52q1 1 2.5 2l1.5 1q0 -3 -1 -7t-2 -8.5t-1 -6.5q-1 -4 -4.5 -19.5t-5.5 -25
t-4 -25.5t-1 -26t4 -21.5t11.5 -17.5t20.5 -8q26 -3 67 23q19 11 51 38t29 30q-1 2 -18.5 -8.5t-40.5 -24.5t-31 -18l-7.5 -4t-11 -6t-11 -5t-12.5 -3t-10.5 0.5t-8.5 5t-5 12.5q-4 27 9 71t10 68q-2 12 -12 16t-21 -2q-16 -9 -46 -39q-7 -6 -35.5 -35.5t-45.5 -43.5
q-7 -5 -7 -6q1 6 11 26q7 15 10 19t11 10q13 10 16 16z" />
    <glyph glyph-name="o" unicode="o" horiz-adv-x="148" 
d="M79 68q12 -4 24 -5t22 0.5t14.5 3.5t3.5 3q0 1 -4 1t-14 1t-20 3.5t-19 6.5q9 20 14 40q8 31 -2 53t-37 25q-28 4 -47 -11t-13 -43q2 -8 5 -15q-4 -10 -10 -34l-7.5 -17t-13 -30t-11.5 -32t-8 -31q-2 -16 7 -26.5t25 -2.5q17 8 40 36q33 38 51 74zM-23 -22q-3 7 6.5 35
t20.5 53l10 25q4 5 11 11q12 -14 29 -24q-26 -50 -59 -85q-14 -14 -18 -15zM-22 -22l1 -1q-1 0 -1 1zM40 118q5 10 4.5 20t-6.5 14q-6 3 -14 -1q-3 17 10 22q11 5 25 1.5t17 -11.5q7 -18 -11 -60q-1 -3 -3 -7q-13 9 -22 21v1z" />
    <glyph glyph-name="p" unicode="p" horiz-adv-x="168" 
d="M51 145q9 19 -7.5 26.5t-24.5 -10.5q-3 -5 -5 -16t-4 -16q-109 -230 -146 -383q-12 -48 -7 -49q2 -1 6 7t10.5 22.5t11 26t10.5 27.5t7 18q32 83 87 228q10 2 16 9t13 22t8 17q13 15 43 38t51 33q10 4 14 5q-1 -14 -17 -43q-6 -10 -12 -21q-61 -24 -94 -52
q-38 -32 -18 -59q10 -13 24 -13.5t28 10.5t27.5 25t26.5 32.5t21 31t13 22.5q36 18 35 20q-1 3 -26 -4l2.5 5.5t3.5 7.5l4 8t3.5 9.5t2 9t1.5 9.5t-0.5 8.5t-3 8t-6.5 5.5q-13 9 -39 -5q-24 -13 -64 -46q-8 -8 -15.5 -15t-12.5 -12l-6 -6q14 37 18 41q3 3 11 8.5t10 9.5z
M-48 -71q-1 -3 -1 -4q1 2 1 4zM137 150zM86 57q-12 -15 -19 -24t-18.5 -21.5t-23.5 -19.5q-5 -4 -8 -5q-4 3 -4.5 7.5t3 9.5t8.5 10.5t13 11t14 10t14 9.5l12 7.5t9 4.5z" />
    <glyph glyph-name="q" unicode="q" horiz-adv-x="192" 
d="M117 73q-3 -1 -4 -1q-3 -2 -7 -5q-9 -7 -34 -29t-40 -32q-1 -1 -5 -4t-6.5 -4t-6.5 -2.5t-6.5 -0.5t-3.5 4t-2 9q0 24 6 50q7 33 23.5 61.5t36.5 42.5q22 15 28 -4q2 -6 3.5 -28t4.5 -39t11 -18h2zM122 49h1h-1zM-106 -297q21 25 57 54l-6 -8q-28 -32 -51 -46zM-148 -325
q1 -4 5 -7q9 -7 24 -1q40 15 84 65q25 29 48 63q64 22 137 14q39 -4 107 -22q39 -11 40 -9q1 3 -37 17q-102 39 -183 34q-23 -1 -47 -7q50 83 87 191q9 25 14 45q2 4 -0.5 8.5t-5.5 6.5q-4 1 -7 1q7 3 12 16q8 20 5 45q-3 32 -22.5 48t-49.5 -2l-6 -4q-23 -16 -41.5 -47.5
t-27.5 -67.5q-21 -85 17 -88q17 -2 39 13q16 10 52 40q-9 -25 -23 -58q-40 -94 -83 -159l-18 -9q-58 -36 -103 -91q-1 0 -4.5 -4t-4 -5t-3.5 -5.5t-3 -6.5t-2 -7t0 -7zM124 50z" />
    <glyph glyph-name="r" unicode="r" horiz-adv-x="143" 
d="M20 155q-14 -33 -22 -52.5t-20.5 -54t-12.5 -42.5t3 -17q8 0 39.5 41.5t70.5 87t65 52.5q-9 5 -18 5t-17 -3t-17.5 -10.5t-17 -15t-17 -19t-16 -20t-16 -21.5t-14.5 -20q33 50 37 86q0 3 -2 6t-5 4.5t-6.5 2t-7.5 -2t-6 -7.5z" />
    <glyph glyph-name="s" unicode="s" horiz-adv-x="190" 
d="M62 30q-63 -27 -81 -54q-4 -6 -4 -15t6 -14q9 -9 23.5 -10t29.5 4t26.5 11t19.5 11q55 39 35 66q-1 2 -3 3q11 6 25 12t21.5 9.5t14.5 7.5t10 6t3 3q-1 1 -12 -1t-32.5 -8.5t-46.5 -15.5q-10 5 -38.5 13.5t-40.5 16.5q-19 16 33 47q20 12 27 14q5 1 18 1t17 3
q10 4 15.5 12t2.5 15t-12.5 8.5t-19.5 -2.5q-10 -5 -31 -21q-2 -1 -10 -4.5t-11.5 -5.5t-11.5 -6.5t-12.5 -7.5t-11 -8t-10 -9.5t-6.5 -10.5t-4 -11q-2 -12 2.5 -21t16.5 -16t20.5 -10.5t25.5 -9.5q4 -1 6 -2zM96 14q0 -1 -1 -2q-35 -47 -85 -48q-2 0 -5 1q4 5 5 6
q20 19 76 48q1 0 2 1q2 -1 3 -2q4 -3 5 -4z" />
    <glyph glyph-name="t" unicode="t" horiz-adv-x="118" 
d="M159 378q8 11 6 25t-14 13q-4 0 -7 -1.5t-5 -4l-4 -5t-3.5 -6.5t-2 -7t-1 -8t-1 -8t-1 -8.5t-0.5 -6.5q-4 -15 -18 -46q-52 -3 -106 -9q-22 -2 -48 -5t-38.5 -4.5t-15.5 -1.5q-5 1 -16.5 4.5t-19.5 2.5q-12 -2 -21 -8.5t-9.5 -13.5t8 -11.5t20.5 -2.5q8 1 38 10
q54 8 197 14q-12 -27 -57 -113.5t-64 -136.5q-25 -64 2 -72q19 -5 56 20q20 14 57.5 47t34.5 37q-2 2 -29.5 -17.5t-60.5 -41.5t-45 -22h-2q-2 11 11 43q6 16 56 117q40 83 63 140q55 2 169.5 4.5t153.5 4.5q101 4 102 9q0 3 -26 5.5t-72 4.5q-170 6 -317 -2l4.5 13.5
t6.5 18t5 10.5q2 4 7.5 10.5t6.5 8.5z" />
    <glyph glyph-name="u" unicode="u" horiz-adv-x="269" 
d="M155 90q-7 -12 -13.5 -30t-10.5 -34.5t-3 -25.5q3 -39 47 -8q18 14 53 47t32 37q-2 2 -25 -19t-49 -41t-32 -16q-6 3 0.5 21.5t22.5 51t20 41.5q9 22 -6 27q-12 3 -29 -11q-3 -3 -37 -36t-61.5 -53.5t-46.5 -21.5q-34 -2 20 96q5 9 5 10q1 5 -4 11t-11 6q-17 1 -30 -41.5
t-13 -68.5q0 -16 9 -25.5t25 -6.5q42 9 78 33t59 57z" />
    <glyph glyph-name="v" unicode="v" horiz-adv-x="218" 
d="M48 139q6 17 -10.5 23.5t-23.5 -10.5q-2 -6 -2 -25q-5 -15 -6.5 -16.5t-12.5 -35.5l-3 -9t-4 -12.5t-3 -12.5t-2 -14.5t0.5 -12t3.5 -11.5t8 -8q17 -8 44 13q23 17 82 77l17.5 17.5l26.5 26.5t26.5 27t21.5 23t7 10q-4 5 -24.5 -9.5t-49 -39.5t-57 -51t-51.5 -46.5
t-30 -24.5v4q-1 18 9 55.5t15 44.5q2 3 9.5 8t8.5 9z" />
    <glyph glyph-name="w" unicode="w" horiz-adv-x="355" 
d="M138 102zM-6 25v1v-1zM53 125q8 12 8.5 23t-6 15t-16 -2t-16.5 -18q-7 -11 -18 -42q-1 -1 -8 -13.5t-10 -19t-7 -17.5t-6 -20q-1 -12 5.5 -20t18.5 -6q6 1 11.5 3t11.5 5t9 5t10 7t8 6q10 6 27 19t32 23t29 17q-2 -11 -8.5 -31.5t-10 -38.5t-1.5 -37q2 -17 15 -26.5
t33 -4.5q54 13 97 75q38 53 45 109q3 27 -3 48t-20 30q-6 4 -6.5 3t3.5 -6q9 -13 11 -32.5t-1.5 -37.5t-10.5 -35q-16 -40 -43.5 -74t-63.5 -50q-1 0 -2 -1q-25 -11 -27 6q-2 15 7 52q1 6 5 19t6.5 24t2.5 21q0 14 -13.5 16t-23.5 -5q-23 -11 -60 -40t-48 -36l-1 -1
q-20 -13 -24 -12q-1 4 4 19q12 34 25 50q3 4 14.5 13.5t15.5 17.5z" />
    <glyph glyph-name="x" unicode="x" horiz-adv-x="329" 
d="M200 125q2 0 9.5 -2t10.5 -0.5t4 9.5q0 13 -8.5 20t-18.5 -2q-1 -2 -6 -8q-10 -5 -33.5 -16.5t-34.5 -17.5q-12 18 -28 30q-2 1 -4 2.5t-3 2t-2 1.5t-5.5 7t-8 8.5t-9.5 2.5q-17 1 -17 -16t14 -19q5 -1 9 -1t8 -0.5t7 -2.5q12 -9 20 -26q-77 -44 -117 -83q-7 -7 -12 -13
t-7 -10t-1 -5q3 -2 21 9q124 77 127 78q2 -7 8.5 -30.5t11.5 -36.5t16.5 -26t27.5 -16q22 -3 49 15q22 13 46 38t39 44q18 25 15 27.5t-26 -17.5q-1 -1 -16 -14.5t-24 -21t-23 -18t-24 -16.5q-28 -16 -40 -7q-6 4 -11 12.5t-7.5 16l-6.5 19.5t-5 16q-6 16 -11 28
q34 21 46 29q17 10 20 10zM-12 -5zM-12 -5q4 3 10 6z" />
    <glyph glyph-name="y" unicode="y" horiz-adv-x="237" 
d="M50 160q1 3 -4 8t-8 1q-4 -2 -4 -3q-55 -70 -51 -140q1 -21 17 -29.5t37 2.5q5 2 9.5 5t9.5 6.5t8.5 6t8.5 7.5t8 7.5t8.5 8t7 7.5t7.5 8.5t8 8.5q4 4 26 30t36 39q-16 -53 -57 -147q-7 -17 -14 -32q-11 -11 -23 -22q-41 -39 -75 -76.5t-58 -77.5q-22 -35 -25 -57
q-2 -15 5.5 -25t20.5 -12q13 2 25 10t17.5 14t16.5 19q44 56 98 168q20 41 33 70q18 18 39 37.5t28.5 26.5t6.5 8q0 1 -7.5 -3.5t-22 -15t-32.5 -24.5q34 80 51 149v26q-5 2 -11 5q-5 -2 -9 -4.5t-9 -7t-7 -6.5t-7.5 -8t-6.5 -7q-10 -10 -38.5 -44t-45.5 -50
q-23 -24 -38 -31q-10 -6 -18.5 -3t-9.5 15q0 5 0.5 10t1.5 8.5t3.5 8.5l3.5 7t4.5 7t3.5 6q11 17 16 25t11 26t5 34zM-52 -290zM-52 -290l-0.5 3t-0.5 5q2 16 20 47q37 62 116 145q-40 -84 -79 -141q-29 -44 -48 -56q-5 -4 -7 -4z" />
    <glyph glyph-name="z" unicode="z" horiz-adv-x="135" 
d="M45 90q36 25 52 42q10 12 10 22q0 5 -2.5 8.5t-8 6t-9 3.5t-11 2t-9.5 1q-4 1 -15.5 4.5t-20.5 5t-18 0.5q-18 -1 -29.5 -8t-10.5 -14q0 -7 8 -10.5t20.5 -3t24 1.5t25 3t17.5 2q15 -1 20 -3q-4 -6 -8 -10.5t-11 -10t-10 -8t-13.5 -9t-11.5 -6.5q-35 -24 -37 -25
q0 -7 -1 -18q4 0 7 1q4 -1 7 -1l1 1q10 0 18 -1q18 4 25.5 -9t5 -36t-7 -41.5t-9.5 -32.5q-32 -96 -84 -137q-30 -24 -55 -15q-42 23 148 221q4 4 0 3q-3 0 -6 -2q-15 -8 -41 -31q-64 -55 -103 -111q-54 -79 -8 -102q51 -22 105 39q44 49 70 126q6 20 10.5 40.5t6 46
t-7.5 43.5t-30 22h-3zM89 151l-1 1q1 0 1 -1z" />
    <glyph glyph-name="braceleft" unicode="{" horiz-adv-x="232" 
d="M167 443q5 4 16 6t16 5q17 12 14 24q-2 8 -13 10t-21 -4q-16 -8 -28 -30q-18 -24 -31 -70.5t-27 -91t-36 -66.5q-14 -21 -34 -37q7 -11 11 -22q11 -10 12.5 -30t-1.5 -33.5t-10 -35.5q-1 -5 -1 -7q-9 -28 -12.5 -47.5t-1 -46t17.5 -41.5q5 -4 9 -7t6.5 -3.5l2.5 -0.5
q0 1 -3.5 7t-8 13.5t-6.5 11.5q-3 10 -3.5 21t2.5 25t4.5 20t7.5 23t7 19q0 1 1 5q8 22 11.5 36t4.5 36t-8 38q-5 9 -12 16q-9 3 -19 3q25 5 42 18q15 15 25.5 38t15 41.5t11.5 50.5t11 48q13 46 28 58z" />
    <glyph glyph-name="bar" unicode="|" horiz-adv-x="78" 
d="M57 422q0 11 -9 16t-18 0.5t-9 -16.5q0 -6 6 -25q0 -12 -3 -93.5t-3 -107.5q1 -52 6 -100q4 -33 9.5 -61.5t10 -42.5t6.5 -14q1 0 2 3t1 9v13t-0.5 18.5t-1.5 21.5t-1.5 26.5t-1.5 28.5q0 6 -4 204q-2 93 -2 96q2 4 7 11.5t5 12.5z" />
    <glyph glyph-name="braceright" unicode="}" horiz-adv-x="232" 
d="M65 -39q-5 -4 -16 -6t-16 -6q-17 -11 -14 -23q2 -8 13 -10t21 4q16 8 28 30q18 23 31 69.5t27 91.5t36 67q14 21 34 37q-7 11 -11 22q-11 10 -12.5 30t1.5 33.5t10 35.5q1 4 1 6q9 29 12.5 48.5t1 46t-17.5 41.5q-4 4 -8.5 7t-7 3.5t-2.5 -0.5l3.5 -6t8.5 -13.5t6 -11.5
q3 -11 3.5 -21.5t-2.5 -24.5t-4.5 -20t-7.5 -23.5t-6 -18.5q-1 -1 -2 -5q-8 -22 -11.5 -36t-4 -36.5t7.5 -37.5q5 -9 12 -16q9 -3 19 -3q-24 -5 -42 -18q-15 -15 -25 -38t-15 -41.5t-12 -50.5t-11 -48q-13 -46 -28 -58z" />
    <glyph glyph-name="asciitilde" unicode="~" horiz-adv-x="265" 
d="M23 190q-5 -5 -1 -12.5t12.5 -12.5t12.5 -2q1 1 5 12q4 4 15 7.5t19 2.5q13 -2 44 -22q49 -34 84 -20q10 4 22 13.5t8 14.5q-1 2 -8 0t-15.5 -5.5t-11.5 -3.5q-6 -3 -14.5 -1t-12.5 2.5t-11 4.5t-10 6t-9.5 6.5t-9.5 6.5q-49 32 -85 13q-4 -2 -8 -4.5t-6 -4t-3 -1.5
q-2 0 -6 0.5t-6.5 1t-4.5 -1.5z" />
    <glyph glyph-name="exclamdown" unicode="&#xa1;" horiz-adv-x="201" 
d="M156.5 437q10.5 0 18 8t7.5 19.5t-7.5 19.5t-18 8t-17.5 -8t-7 -19.5t7 -19.5t17.5 -8zM20 -70q-3 -13 4.5 -20t17.5 -4t13 15q2 7 1 29q0 1 2.5 10t6.5 25.5t8 32.5q46 184 67 321q11 76 5 73.5t-24 -69.5q-28 -109 -68 -320q-13 -64 -16 -70q-2 -3 -9 -10.5t-8 -12.5z
" />
    <glyph glyph-name="cent" unicode="&#xa2;" horiz-adv-x="310" 
d="M172 279q-38 -167 -54 -277q-58 -23 -69 9q-8 23 5 70q33 113 118 198zM231 402q3 14 -5 21t-18 3t-13 -17q-1 -7 0 -30q0 -1 -16 -68q-38 -29 -77 -82q-63 -85 -79 -163q-9 -45 7 -75t59 -24q12 2 25 7q-12 -89 -5 -90q3 -1 9.5 24.5t17.5 75.5q34 17 73 47
q25 20 45.5 38.5t29 28.5t7.5 11q-2 2 -11.5 -4.5t-34.5 -24.5t-47 -33q-32 -21 -55 -33q30 140 56 288q28 19 40 3q3 -5 9.5 -9t14 -5t11.5 7q7 16 -7.5 30t-35.5 10q-5 -1 -28 -12q8 46 11 50q2 4 8.5 12t8.5 14z" />
    <glyph glyph-name="sterling" unicode="&#xa3;" horiz-adv-x="373" 
d="M77 -1q-3 -5 -3.5 -6.5t-3.5 -6t-4.5 -5.5t-4.5 -2.5t-6 -0.5t-6 4q-2 3 -3 5q4 7 31 12zM117 27q9 25 16.5 53t17.5 68t13 54q82 -1 121 3q35 3 7 12q-20 6 -53 9q-34 3 -68 3q1 3 4.5 16t5 17.5t4.5 16t5 16.5t5 14.5t5.5 15.5t6 13t7 12.5t7.5 10.5q8 9 26 21t26 23
q6 8 2.5 14t-12.5 6.5t-18 -3.5q-24 -10 -41 -54q-29 -52 -56 -140q-17 -1 -55 -4q-24 -2 -26 -1t-6.5 6t-7.5 5q-10 0 -9.5 -18t10.5 -18q3 0 14 6h21t25.5 -1t25.5 -1q-4 -16 -14.5 -54.5t-19 -67.5t-18.5 -54q-60 -6 -68 -32q-6 -20 14.5 -36t40.5 -3q17 11 33 48
q29 1 53.5 -4t56.5 -17.5t42 -15.5q45 -13 74 3q7 5 12 10t6.5 7.5t1.5 3.5q-1 0 -3.5 -1.5t-8.5 -5t-12 -5.5q-27 -10 -65 4q-10 4 -31.5 14t-35.5 15.5t-36.5 10.5t-44.5 5z" />
    <glyph glyph-name="yen" unicode="&#xa5;" horiz-adv-x="356" 
d="M334 411q9 19 -3 33t-30 1q-16 -10 -30 -50q-8 -21 -17 -54q-64 -74 -114 -102q-47 -25 -59 4q-6 17 -5.5 39t4.5 36q3 11 11.5 27.5t11.5 27.5q5 19 3.5 34t-8.5 17q-12 4 -22 -20.5t-13 -50.5q-1 -7 -5 -59q-4 -41 11 -68t52 -17q37 9 89 54q15 13 30 28
q-23 -85 -32 -116q-20 -1 -47 -4t-43.5 -5t-18.5 -1t-6.5 5.5t-7.5 4.5q-10 -1 -8.5 -18.5t11.5 -17.5q3 0 13 7q2 0 15.5 0.5t39.5 1t43 0.5q-5 -18 -7 -18q-20 0 -46 -3t-42 -5.5t-18 -1.5t-6.5 6t-7.5 5q-10 -1 -9 -19t11 -17q4 0 14 6q2 1 15 1t38.5 0.5t42.5 0.5
q-10 -25 -16.5 -39t-19.5 -32.5t-28 -26.5q-8 -5 -17 -5.5t-17.5 2.5t-15.5 7t-15 11t-12 11t-10 11l-3 3q-9 10 -10.5 9.5t5.5 -12.5q5 -9 12 -17.5t17 -18.5t21 -15t25 -7t28 5q19 10 35.5 30.5t25 38t19.5 46.5q111 3 111 11q1 7 -35 11t-65 5q3 8 6 18q107 3 107 10
q1 8 -34 12t-64 4q10 33 24 82h-1q6 21 22 75q43 50 55 79z" />
    <glyph glyph-name="section" unicode="&#xa7;" horiz-adv-x="1024" 
 />
    <glyph glyph-name="copyright" unicode="&#xa9;" horiz-adv-x="204" 
d="M109 358q-4 -2 -2.5 -14.5t3.5 -17.5q3 -10 9.5 -11.5t13.5 5.5q14 16 7.5 41.5t-27.5 25.5q-8 -1 -14.5 -7t-7.5 -9t-6 -15q-7 -18 -13 -40t-5.5 -49.5t15.5 -39.5q16 -12 39 7q36 28 56 93q7 27 7 52.5t-15 44t-43 18.5q-61 0 -92 -81q-11 -29 -14 -63.5t7 -66
t35 -41.5q9 -3 18 -3q27 0 47.5 16t31.5 38q4 6 5.5 12.5t1.5 8.5t-1 3l-1.5 -2t-5 -7.5t-7.5 -10.5q-32 -42 -70 -40q-20 2 -29.5 19.5t-8.5 42t5 47t10 37.5q32 78 80 62q18 -5 20 -29.5t-4 -45.5t-14 -38q-20 -45 -40 -54q-4 -1 -5 -1q-9 12 -7.5 33.5t5.5 39.5t9 31
q7 16 12 13z" />
    <glyph glyph-name="registered" unicode="&#xae;" horiz-adv-x="278" 
d="M92 297q5 12 10 23q30 74 15 71q-12 -3 -27 -64q-7 -26 -16 -62q-2 -3 -4 -7q-3 -15 -6 -29l-2 -6q21 20 26 25q48 86 77 118q11 12 16 14q14 -14 -20 -51q-12 -13 -30 -28l-16 -18q5 -15 11 -29q5 -7 14 -13.5t21 -10t23 4.5q23 16 44 65q10 25 13.5 50.5t-3.5 50.5
t-28 36q-18 9 -44 9q-41 0 -72.5 -18.5t-49 -48.5t-22.5 -68q-8 -56 14.5 -97t70.5 -44q46 -3 80 19t55 56q12 20 18 40q-13 -33 -38.5 -61t-58.5 -40q-23 -8 -50 -6t-43 14q-23 16 -33 47.5t-4 69.5q9 54 43 88.5t90 33.5q60 -1 62 -55q1 -35 -13 -67.5t-34 -53.5
q-6 -5 -10 -6q-6 -1 -11.5 0.5t-10.5 6t-7.5 7.5t-7 9t-6.5 8q8 3 15 7q47 38 58 67q8 18 -2 35.5t-29 6.5q-16 -9 -41 -43q-18 -24 -37 -56z" />
    <glyph glyph-name="plusminus" unicode="&#xb1;" horiz-adv-x="283" 
d="M145 272q-3 -4 -7 -17t-8 -29t-7 -23q-18 -1 -43 -4q-33 -4 -35 -3t-6 6t-7 5q-6 0 -7.5 -9.5t1.5 -18t8 -8.5q3 0 12 6h69q-10 -39 -10 -74q-1 -32 5 -33q5 0 13 30q3 10 9.5 35t10.5 42q115 2 115 14q0 4 -14 7t-39 5t-54 1q23 74 4 75q-5 0 -10 -7zM1 29q0 5 53 8
t106.5 1t53.5 -8q0 -5 -53 -8t-106.5 -1t-53.5 8z" />
    <glyph glyph-name="questiondown" unicode="&#xbf;" horiz-adv-x="386" 
d="M343.5 447q9.5 0 16.5 7.5t7 17.5t-7 17.5t-16.5 7.5t-16.5 -7.5t-7 -17.5t7 -17.5t16.5 -7.5zM25 -37q12 -35 45 -52t78 -9q20 4 41 12q12 5 24 11t21 11.5t16.5 10.5l12 8l4.5 3q5 3 15 7t16.5 7.5t11.5 9.5q5 5 9 12.5t5.5 16t-5.5 12.5q-10 7 -30 -11q-2 -2 -5 -6
q2 3 5 6q-5 -6 -19 -22t-17 -19q-10 -7 -27.5 -16.5t-44.5 -20.5t-51 -12t-48 9q-21 11 -31 34.5t0 49.5q11 31 55 75q23 24 68.5 62.5t80 72.5t58.5 70q23 35 28 67q2 11 1.5 18.5t-1.5 11.5t-2 4t-1.5 -3.5t-2.5 -11.5t-4 -17q-13 -41 -57 -88q-28 -30 -104.5 -93.5
t-109.5 -103.5q-53 -63 -35 -116z" />
    <glyph glyph-name="Agrave" unicode="&#xc0;" 
d="M389 -194q-1 -36 20 -35q15 -1 18.5 10.5t1 32t-0.5 28.5q15 73 88 329q-6 -21 -20 -72l-36 -127q11 38 57 199q11 0 50 -2t60 -2.5t29 0.5q1 6 -48.5 15t-84.5 12q38 135 46 217q1 11 1.5 17t1 17t0.5 17.5t-1 16.5t-3 16t-5 13t-8 10.5t-11 6t-14.5 1.5t-18.5 -4
q-29 -10 -69 -42q-58 -45 -130 -126q-83 -91 -159 -200q-16 -4 -19 -4q-4 0 -14.5 2t-16.5 1q-10 -3 -15 -10t-3 -14q7 -24 50 0q-10 -15 -22.5 -34.5t-21 -32.5t-10.5 -15q-6 -8 -23.5 -29.5t-27 -37t-18.5 -35.5q-9 -23 -11.5 -41t3.5 -20t14.5 8t19.5 29t17.5 31t14.5 30
q2 4 3 5q2 6 8 17.5t7 14t5.5 11t5.5 10.5t5.5 9.5t7 11t8.5 12.5l11 16.5t14 19.5q9 14 20 28q153 34 325 34q-6 -21 -18 -62t-19 -65q-35 -81 -55 -170q-9 -43 -9 -68zM519 497q24 8 25 -18q3 -57 -12 -136q-11 -58 -36 -147q-150 7 -314 -35q122 165 236 266q43 39 74 57
q16 10 27 13zM533 232q-4 -15 -10 -38h-1q11 37 11 38zM411 -210zM452 590q-6 4 -12 -4.5t-2 -13.5q13 -16 31.5 -28t23.5 -7q2 2 -3.5 12.5t-16.5 22t-21 18.5z" />
    <glyph glyph-name="Aacute" unicode="&#xc1;" 
d="M389 -194q-1 -36 20 -35q15 -1 18.5 10.5t1 32t-0.5 28.5q15 73 88 329q-6 -21 -20 -72l-36 -127q11 38 57 199q11 0 50 -2t60 -2.5t29 0.5q1 6 -48.5 15t-84.5 12q38 135 46 217q1 11 1.5 17t1 17t0.5 17.5t-1 16.5t-3 16t-5 13t-8 10.5t-11 6t-14.5 1.5t-18.5 -4
q-29 -10 -69 -42q-58 -45 -130 -126q-83 -91 -159 -200q-16 -4 -19 -4q-4 0 -14.5 2t-16.5 1q-10 -3 -15 -10t-3 -14q7 -24 50 0q-10 -15 -22.5 -34.5t-21 -32.5t-10.5 -15q-6 -8 -23.5 -29.5t-27 -37t-18.5 -35.5q-9 -23 -11.5 -41t3.5 -20t14.5 8t19.5 29t17.5 31t14.5 30
q2 4 3 5q2 6 8 17.5t7 14t5.5 11t5.5 10.5t5.5 9.5t7 11t8.5 12.5l11 16.5t14 19.5q9 14 20 28q153 34 325 34q-6 -21 -18 -62t-19 -65q-35 -81 -55 -170q-9 -43 -9 -68zM519 497q24 8 25 -18q3 -57 -12 -136q-11 -58 -36 -147q-150 7 -314 -35q122 165 236 266q43 39 74 57
q16 10 27 13zM533 232q-4 -15 -10 -38h-1q11 37 11 38zM411 -210zM510 590q6 4 12 -4.5t2 -13.5q-13 -16 -31.5 -28t-23.5 -7q-2 2 3.5 12.5t16.5 22t21 18.5z" />
    <glyph glyph-name="Acircumflex" unicode="&#xc2;" 
d="M389 -194q-1 -36 20 -35q15 -1 18.5 10.5t1 32t-0.5 28.5q15 73 88 329q-6 -21 -20 -72l-36 -127q11 38 57 199q11 0 50 -2t60 -2.5t29 0.5q1 6 -48.5 15t-84.5 12q38 135 46 217q1 11 1.5 17t1 17t0.5 17.5t-1 16.5t-3 16t-5 13t-8 10.5t-11 6t-14.5 1.5t-18.5 -4
q-29 -10 -69 -42q-58 -45 -130 -126q-83 -91 -159 -200q-16 -4 -19 -4q-4 0 -14.5 2t-16.5 1q-10 -3 -15 -10t-3 -14q7 -24 50 0q-10 -15 -22.5 -34.5t-21 -32.5t-10.5 -15q-6 -8 -23.5 -29.5t-27 -37t-18.5 -35.5q-9 -23 -11.5 -41t3.5 -20t14.5 8t19.5 29t17.5 31t14.5 30
q2 4 3 5q2 6 8 17.5t7 14t5.5 11t5.5 10.5t5.5 9.5t7 11t8.5 12.5l11 16.5t14 19.5q9 14 20 28q153 34 325 34q-6 -21 -18 -62t-19 -65q-35 -81 -55 -170q-9 -43 -9 -68zM519 497q24 8 25 -18q3 -57 -12 -136q-11 -58 -36 -147q-150 7 -314 -35q122 165 236 266q43 39 74 57
q16 10 27 13zM533 232q-4 -15 -10 -38h-1q11 37 11 38zM411 -210zM420 528q-11 4 16 32q29 31 52 32q17 1 17 -27t-7 -33q-5 -3 -6 5v11q1 26 -7 25q-12 -1 -35.5 -24t-29.5 -21z" />
    <glyph glyph-name="Atilde" unicode="&#xc3;" 
d="M389 -194q-1 -36 20 -35q15 -1 18.5 10.5t1 32t-0.5 28.5q15 73 88 329q-6 -21 -20 -72l-36 -127q11 38 57 199q11 0 50 -2t60 -2.5t29 0.5q1 6 -48.5 15t-84.5 12q38 135 46 217q1 11 1.5 17t1 17t0.5 17.5t-1 16.5t-3 16t-5 13t-8 10.5t-11 6t-14.5 1.5t-18.5 -4
q-29 -10 -69 -42q-58 -45 -130 -126q-83 -91 -159 -200q-16 -4 -19 -4q-4 0 -14.5 2t-16.5 1q-10 -3 -15 -10t-3 -14q7 -24 50 0q-10 -15 -22.5 -34.5t-21 -32.5t-10.5 -15q-6 -8 -23.5 -29.5t-27 -37t-18.5 -35.5q-9 -23 -11.5 -41t3.5 -20t14.5 8t19.5 29t17.5 31t14.5 30
q2 4 3 5q2 6 8 17.5t7 14t5.5 11t5.5 10.5t5.5 9.5t7 11t8.5 12.5l11 16.5t14 19.5q9 14 20 28q153 34 325 34q-6 -21 -18 -62t-19 -65q-35 -81 -55 -170q-9 -43 -9 -68zM519 497q24 8 25 -18q3 -57 -12 -136q-11 -58 -36 -147q-150 7 -314 -35q122 165 236 266q43 39 74 57
q16 10 27 13zM533 232q-4 -15 -10 -38h-1q11 37 11 38zM411 -210zM452 556q-2 4 8.5 12t28 15t31.5 7q9 0 26 -17t26 -17q10 0 22.5 6.5t21 12t10.5 3.5q3 -3 -8 -14.5t-27.5 -22t-26.5 -10.5q-12 0 -24.5 17t-23.5 20q-10 3 -25.5 -2t-26 -9t-12.5 -1z" />
    <glyph glyph-name="Adieresis" unicode="&#xc4;" 
d="M389 -194q-1 -36 20 -35q15 -1 18.5 10.5t1 32t-0.5 28.5q15 73 88 329q-6 -21 -20 -72l-36 -127q11 38 57 199q11 0 50 -2t60 -2.5t29 0.5q1 6 -48.5 15t-84.5 12q38 135 46 217q1 11 1.5 17t1 17t0.5 17.5t-1 16.5t-3 16t-5 13t-8 10.5t-11 6t-14.5 1.5t-18.5 -4
q-29 -10 -69 -42q-58 -45 -130 -126q-83 -91 -159 -200q-16 -4 -19 -4q-4 0 -14.5 2t-16.5 1q-10 -3 -15 -10t-3 -14q7 -24 50 0q-10 -15 -22.5 -34.5t-21 -32.5t-10.5 -15q-6 -8 -23.5 -29.5t-27 -37t-18.5 -35.5q-9 -23 -11.5 -41t3.5 -20t14.5 8t19.5 29t17.5 31t14.5 30
q2 4 3 5q2 6 8 17.5t7 14t5.5 11t5.5 10.5t5.5 9.5t7 11t8.5 12.5l11 16.5t14 19.5q9 14 20 28q153 34 325 34q-6 -21 -18 -62t-19 -65q-35 -81 -55 -170q-9 -43 -9 -68zM519 497q24 8 25 -18q3 -57 -12 -136q-11 -58 -36 -147q-150 7 -314 -35q122 165 236 266q43 39 74 57
q16 10 27 13zM533 232q-4 -15 -10 -38h-1q11 37 11 38zM411 -210zM485 572q0 6 6.5 10t12.5 4q13 0 13 -14q0 -6 -4 -13t-9 -7t-12 7t-7 13zM547 572q0 6 4.5 10t10.5 4t11.5 -4t5.5 -10t-4 -13t-9 -7t-12 7t-7 13z" />
    <glyph glyph-name="Aring" unicode="&#xc5;" 
d="M389 -194q-1 -36 20 -35q15 -1 18.5 10.5t1 32t-0.5 28.5q15 73 88 329q-6 -21 -20 -72l-36 -127q11 38 57 199q11 0 50 -2t60 -2.5t29 0.5q1 6 -48.5 15t-84.5 12q38 135 46 217q1 11 1.5 17t1 17t0.5 17.5t-1 16.5t-3 16t-5 13t-8 10.5t-11 6t-14.5 1.5t-18.5 -4
q-29 -10 -69 -42q-58 -45 -130 -126q-83 -91 -159 -200q-16 -4 -19 -4q-4 0 -14.5 2t-16.5 1q-10 -3 -15 -10t-3 -14q7 -24 50 0q-10 -15 -22.5 -34.5t-21 -32.5t-10.5 -15q-6 -8 -23.5 -29.5t-27 -37t-18.5 -35.5q-9 -23 -11.5 -41t3.5 -20t14.5 8t19.5 29t17.5 31t14.5 30
q2 4 3 5q2 6 8 17.5t7 14t5.5 11t5.5 10.5t5.5 9.5t7 11t8.5 12.5l11 16.5t14 19.5q9 14 20 28q153 34 325 34q-6 -21 -18 -62t-19 -65q-35 -81 -55 -170q-9 -43 -9 -68zM519 497q24 8 25 -18q3 -57 -12 -136q-11 -58 -36 -147q-150 7 -314 -35q122 165 236 266q43 39 74 57
q16 10 27 13zM533 232q-4 -15 -10 -38h-1q11 37 11 38zM411 -210zM430 546zM431 546q1 6 10 16t14 7q2 -1 4 -4q-2 -1 -7.5 -6.5t-10.5 -8.5t-10 -4zM466 569q0 5 -2 11t-4.5 11t-5.5 4q-2 -1 -6 -8l-6.5 -3.5t-9 -4.5t-8.5 -5t-9 -7t-6.5 -7.5t-4 -8.5t0 -10t4.5 -11
q6 -9 17 -10.5t20 4.5q18 11 23 30q5 16 -3 15z" />
    <glyph glyph-name="AE" unicode="&#xc6;" horiz-adv-x="1020" 
d="M389 -194q-1 -36 20 -35q15 -1 18.5 10.5t1 32t-0.5 28.5q15 77 74 281l1 1l-1 -1v-1v-1l-1 -1v-1v-1v-1l-1 -1v-1v-1v-1l-1 -1v-1v-1l-1 -1v-1v-1v-1l-1 -1v-1v-1l-1 -1v-1v-2l-37 -129q9 29 44 154q27 2 38 3q-60 -111 -19 -166q59 -79 308 -29q38 7 69 15.5t45.5 13.5
t14.5 6q-1 2 -14 0t-50 -8t-68 -10q-4 -1 -14 -2q-25 -4 -39.5 -5.5t-44 -5t-48.5 -3t-45 2t-43 7.5t-32.5 15.5t-22.5 25t-6 36.5q3 43 42 112q153 23 326 69q37 10 37 13q-3 16 -288 -42q-12 5 -43 11q59 89 167 216q30 36 36 42q7 6 21 14.5t20 14.5q5 1 51.5 3.5t82 5
t79.5 6t68.5 7t24.5 7.5q0 6 -87 6q-90 0 -198 -7q8 18 1 24q-8 7 -22 -3t-25 -24q-60 -5 -134 -14q-89 -11 -92 -11q-5 1 -14 4.5t-14 3.5q-6 62 -60 44q-29 -10 -69 -42q-58 -45 -130 -126q-83 -91 -159 -200q-16 -4 -19 -4q-4 0 -14.5 2t-16.5 1q-10 -3 -15 -10t-3 -14
q7 -24 50 0q-10 -15 -22.5 -34.5t-21 -32.5t-10.5 -15q-6 -8 -23.5 -29.5t-27 -37t-18.5 -35.5q-9 -23 -11.5 -41t3.5 -20t14.5 8t19.5 29t17.5 31t14.5 30q2 4 3 5q2 6 8 17.5t7 14t5.5 11t5.5 10.5t5.5 9.5t7 11t8.5 12.5l11 16.5t14 19.5q9 14 20 28q153 34 325 34
q-5 -14 -9 -31q-36 -5 -45 -2q-4 1 -12.5 5.5t-13.5 5.5q-13 0 -19.5 -9t-1.5 -18t20 -9q9 -1 31 5q10 1 35 3q-15 -54 -22 -77q-35 -81 -55 -170q-9 -43 -9 -68zM519 497q24 8 25 -18q1 -8 1 -16q-1 -3 -1 -6q0 -1 1 -2q-1 -48 -13 -112q-11 -58 -36 -147q-150 7 -314 -35
q122 165 236 266q43 39 74 57q16 10 27 13zM533 232q-4 -15 -10 -38h-1q11 37 11 38zM411 -210zM596 168q15 -1 26 -1q-7 -2 -14 -3.5t-11.5 -2t-5.5 -1.5q2 4 5 8zM508 144q6 20 8 27q-3 -11 -8 -27zM509 144q4 13 8 27q11 0 49 -2l-10 -16q-37 -7 -47 -9zM578 187
q-33 5 -55 7q38 135 46 217q2 20 2 31q8 1 32 10q32 4 201 15q-11 -16 -45 -55q-124 -140 -181 -225z" />
    <glyph glyph-name="Ccedilla" unicode="&#xc7;" horiz-adv-x="497" 
d="M373 306q12 18 23.5 31t23.5 30q14 20 24.5 51t3.5 56q-5 20 -27.5 24t-44.5 -4q-47 -15 -103 -58q-113 -89 -181 -249q-46 -110 -60 -206q-17 -106 13 -146q17 -23 50 -22q1 6 8 26q3 10 14 13t21 -4t20 -18q6 3 13 6q54 27 128 87q2 1 29.5 23.5t51 41t52 40.5t46 34.5
t19.5 10.5q1 -1 -5.5 -7t-20.5 -18t-23 -20q-50 -47 -137 -120q-72 -62 -130 -92q-5 -3 -8 -4q17 -26 34 -69q35 -86 -7 -99q-16 -5 -38 5q-15 7 -31 18q-4 4 -37.5 26t-55.5 38t-20 19q2 4 38 -13q46 -21 89 -49q1 -1 7 -5t9 -5.5l8 -4t10 -3.5t10 -1q15 0 -0.5 46.5
t-26.5 67.5q-7 13 -10 19q-13 -5 -24 -8q0 -1 -1 -1q-9 -13 -23 -4q-9 -1 -17 0q-31 0 -51.5 18.5t-27.5 47t-8 63t5 67.5q8 50 24 106q55 183 154 292q72 81 152 118q59 27 96 16q22 -6 30.5 -24.5t5.5 -42t-9 -42.5t-14 -36q-18 -51 -41 -85q-16 -25 -32.5 -39.5
t-22.5 -9.5q-13 9 25 68zM138 -178q-5 6 -11 10q-4 3 -5 3l-2 -7q1 -3 5 -10q6 2 13 4z" />
    <glyph glyph-name="Egrave" unicode="&#xc8;" 
d="M452 590q-6 4 -12 -4.5t-2 -13.5q13 -16 31.5 -28t23.5 -7q2 2 -3.5 12.5t-16.5 22t-21 18.5zM485 522q-8 7 -22 -3t-26 -24q-59 -5 -133 -14q-89 -11 -92 -11q-4 1 -15 5t-17 3q-11 -1 -17.5 -7.5t-5.5 -13.5t9 -11.5t18 -3.5q7 1 32 10q32 4 201 15q-11 -16 -46 -55
q-146 -166 -202 -259q-106 -20 -121 -15q-3 1 -11.5 5.5t-13.5 5.5q-14 0 -20 -9t-1 -18t19 -9q9 -1 31 5q71 5 102 9q-60 -111 -19 -166q59 -79 308 -29q38 7 69 15.5t45.5 13.5t13.5 6q0 2 -13 0t-50.5 -8t-67.5 -10q-4 -1 -14 -2q-25 -4 -40 -5.5t-44 -5t-48.5 -3t-45 2
t-42.5 7.5t-32.5 15.5t-22.5 25t-6 36.5q2 43 42 112q152 23 326 69q37 10 37 13q-3 16 -346 -54q58 94 182 239q30 36 36 42q7 6 20.5 14.5t20.5 14.5q5 1 51.5 3.5t82 5t79 6t68.5 7t25 7.5q0 6 -87 6q-90 0 -199 -7q8 18 2 24z" />
    <glyph glyph-name="Eacute" unicode="&#xc9;" 
d="M510 590q6 4 12 -4.5t2 -13.5q-13 -16 -31.5 -28t-23.5 -7q-2 2 3.5 12.5t16.5 22t21 18.5zM485 522q-8 7 -22 -3t-26 -24q-59 -5 -133 -14q-89 -11 -92 -11q-4 1 -15 5t-17 3q-11 -1 -17.5 -7.5t-5.5 -13.5t9 -11.5t18 -3.5q7 1 32 10q32 4 201 15q-11 -16 -46 -55
q-146 -166 -202 -259q-106 -20 -121 -15q-3 1 -11.5 5.5t-13.5 5.5q-14 0 -20 -9t-1 -18t19 -9q9 -1 31 5q71 5 102 9q-60 -111 -19 -166q59 -79 308 -29q38 7 69 15.5t45.5 13.5t13.5 6q0 2 -13 0t-50.5 -8t-67.5 -10q-4 -1 -14 -2q-25 -4 -40 -5.5t-44 -5t-48.5 -3t-45 2
t-42.5 7.5t-32.5 15.5t-22.5 25t-6 36.5q2 43 42 112q152 23 326 69q37 10 37 13q-3 16 -346 -54q58 94 182 239q30 36 36 42q7 6 20.5 14.5t20.5 14.5q5 1 51.5 3.5t82 5t79 6t68.5 7t25 7.5q0 6 -87 6q-90 0 -199 -7q8 18 2 24z" />
    <glyph glyph-name="Ecircumflex" unicode="&#xca;" 
d="M420 528q-11 4 16 32q29 31 52 32q17 1 17 -27t-7 -33q-5 -3 -6 5v11q1 26 -7 25q-12 -1 -35.5 -24t-29.5 -21zM485 522q-8 7 -22 -3t-26 -24q-59 -5 -133 -14q-89 -11 -92 -11q-4 1 -15 5t-17 3q-11 -1 -17.5 -7.5t-5.5 -13.5t9 -11.5t18 -3.5q7 1 32 10q32 4 201 15
q-11 -16 -46 -55q-146 -166 -202 -259q-106 -20 -121 -15q-3 1 -11.5 5.5t-13.5 5.5q-14 0 -20 -9t-1 -18t19 -9q9 -1 31 5q71 5 102 9q-60 -111 -19 -166q59 -79 308 -29q38 7 69 15.5t45.5 13.5t13.5 6q0 2 -13 0t-50.5 -8t-67.5 -10q-4 -1 -14 -2q-25 -4 -40 -5.5t-44 -5
t-48.5 -3t-45 2t-42.5 7.5t-32.5 15.5t-22.5 25t-6 36.5q2 43 42 112q152 23 326 69q37 10 37 13q-3 16 -346 -54q58 94 182 239q30 36 36 42q7 6 20.5 14.5t20.5 14.5q5 1 51.5 3.5t82 5t79 6t68.5 7t25 7.5q0 6 -87 6q-90 0 -199 -7q8 18 2 24z" />
    <glyph glyph-name="Edieresis" unicode="&#xcb;" 
d="M452 556q-2 4 8.5 12t28 15t31.5 7q9 0 26 -17t26 -17q10 0 22.5 6.5t21 12t10.5 3.5q3 -3 -8 -14.5t-27.5 -22t-26.5 -10.5q-12 0 -24.5 17t-23.5 20q-10 3 -25.5 -2t-26 -9t-12.5 -1zM485 522q-8 7 -22 -3t-26 -24q-59 -5 -133 -14q-89 -11 -92 -11q-4 1 -15 5t-17 3
q-11 -1 -17.5 -7.5t-5.5 -13.5t9 -11.5t18 -3.5q7 1 32 10q32 4 201 15q-11 -16 -46 -55q-146 -166 -202 -259q-106 -20 -121 -15q-3 1 -11.5 5.5t-13.5 5.5q-14 0 -20 -9t-1 -18t19 -9q9 -1 31 5q71 5 102 9q-60 -111 -19 -166q59 -79 308 -29q38 7 69 15.5t45.5 13.5
t13.5 6q0 2 -13 0t-50.5 -8t-67.5 -10q-4 -1 -14 -2q-25 -4 -40 -5.5t-44 -5t-48.5 -3t-45 2t-42.5 7.5t-32.5 15.5t-22.5 25t-6 36.5q2 43 42 112q152 23 326 69q37 10 37 13q-3 16 -346 -54q58 94 182 239q30 36 36 42q7 6 20.5 14.5t20.5 14.5q5 1 51.5 3.5t82 5t79 6
t68.5 7t25 7.5q0 6 -87 6q-90 0 -199 -7q8 18 2 24z" />
    <glyph glyph-name="Igrave" unicode="&#xcc;" 
d="M452 590q-6 4 -12 -4.5t-2 -13.5q13 -16 31.5 -28t23.5 -7q2 2 -3.5 12.5t-16.5 22t-21 18.5zM485 522q-8 7 -22 -3t-26 -24q-59 -5 -133 -14q-89 -11 -92 -11q-4 1 -15 5t-17 3q-11 -1 -17.5 -7.5t-5.5 -13.5t9 -11.5t18 -3.5q7 1 32 10q32 4 201 15q-11 -16 -46 -55
q-146 -166 -202 -259q-106 -20 -121 -15q-3 1 -11.5 5.5t-13.5 5.5q-14 0 -20 -9t-1 -18t19 -9q9 -1 31 5q71 5 102 9q-60 -111 -19 -166q59 -79 308 -29q38 7 69 15.5t45.5 13.5t13.5 6q0 2 -13 0t-50.5 -8t-67.5 -10q-4 -1 -14 -2q-25 -4 -40 -5.5t-44 -5t-48.5 -3t-45 2
t-42.5 7.5t-32.5 15.5t-22.5 25t-6 36.5q2 43 42 112q152 23 326 69q37 10 37 13q-3 16 -346 -54q58 94 182 239q30 36 36 42q7 6 20.5 14.5t20.5 14.5q5 1 51.5 3.5t82 5t79 6t68.5 7t25 7.5q0 6 -87 6q-90 0 -199 -7q8 18 2 24z" />
    <glyph glyph-name="Iacute" unicode="&#xcd;" 
d="M510 590q6 4 12 -4.5t2 -13.5q-13 -16 -31.5 -28t-23.5 -7q-2 2 3.5 12.5t16.5 22t21 18.5zM485 522q-8 7 -22 -3t-26 -24q-59 -5 -133 -14q-89 -11 -92 -11q-4 1 -15 5t-17 3q-11 -1 -17.5 -7.5t-5.5 -13.5t9 -11.5t18 -3.5q7 1 32 10q32 4 201 15q-11 -16 -46 -55
q-146 -166 -202 -259q-106 -20 -121 -15q-3 1 -11.5 5.5t-13.5 5.5q-14 0 -20 -9t-1 -18t19 -9q9 -1 31 5q71 5 102 9q-60 -111 -19 -166q59 -79 308 -29q38 7 69 15.5t45.5 13.5t13.5 6q0 2 -13 0t-50.5 -8t-67.5 -10q-4 -1 -14 -2q-25 -4 -40 -5.5t-44 -5t-48.5 -3t-45 2
t-42.5 7.5t-32.5 15.5t-22.5 25t-6 36.5q2 43 42 112q152 23 326 69q37 10 37 13q-3 16 -346 -54q58 94 182 239q30 36 36 42q7 6 20.5 14.5t20.5 14.5q5 1 51.5 3.5t82 5t79 6t68.5 7t25 7.5q0 6 -87 6q-90 0 -199 -7q8 18 2 24z" />
    <glyph glyph-name="Icircumflex" unicode="&#xce;" 
d="M420 528q-11 4 16 32q29 31 52 32q17 1 17 -27t-7 -33q-5 -3 -6 5v11q1 26 -7 25q-12 -1 -35.5 -24t-29.5 -21zM485 522q-8 7 -22 -3t-26 -24q-59 -5 -133 -14q-89 -11 -92 -11q-4 1 -15 5t-17 3q-11 -1 -17.5 -7.5t-5.5 -13.5t9 -11.5t18 -3.5q7 1 32 10q32 4 201 15
q-11 -16 -46 -55q-146 -166 -202 -259q-106 -20 -121 -15q-3 1 -11.5 5.5t-13.5 5.5q-14 0 -20 -9t-1 -18t19 -9q9 -1 31 5q71 5 102 9q-60 -111 -19 -166q59 -79 308 -29q38 7 69 15.5t45.5 13.5t13.5 6q0 2 -13 0t-50.5 -8t-67.5 -10q-4 -1 -14 -2q-25 -4 -40 -5.5t-44 -5
t-48.5 -3t-45 2t-42.5 7.5t-32.5 15.5t-22.5 25t-6 36.5q2 43 42 112q152 23 326 69q37 10 37 13q-3 16 -346 -54q58 94 182 239q30 36 36 42q7 6 20.5 14.5t20.5 14.5q5 1 51.5 3.5t82 5t79 6t68.5 7t25 7.5q0 6 -87 6q-90 0 -199 -7q8 18 2 24z" />
    <glyph glyph-name="Idieresis" unicode="&#xcf;" 
d="M452 556q-2 4 8.5 12t28 15t31.5 7q9 0 26 -17t26 -17q10 0 22.5 6.5t21 12t10.5 3.5q3 -3 -8 -14.5t-27.5 -22t-26.5 -10.5q-12 0 -24.5 17t-23.5 20q-10 3 -25.5 -2t-26 -9t-12.5 -1zM485 522q-8 7 -22 -3t-26 -24q-59 -5 -133 -14q-89 -11 -92 -11q-4 1 -15 5t-17 3
q-11 -1 -17.5 -7.5t-5.5 -13.5t9 -11.5t18 -3.5q7 1 32 10q32 4 201 15q-11 -16 -46 -55q-146 -166 -202 -259q-106 -20 -121 -15q-3 1 -11.5 5.5t-13.5 5.5q-14 0 -20 -9t-1 -18t19 -9q9 -1 31 5q71 5 102 9q-60 -111 -19 -166q59 -79 308 -29q38 7 69 15.5t45.5 13.5
t13.5 6q0 2 -13 0t-50.5 -8t-67.5 -10q-4 -1 -14 -2q-25 -4 -40 -5.5t-44 -5t-48.5 -3t-45 2t-42.5 7.5t-32.5 15.5t-22.5 25t-6 36.5q2 43 42 112q152 23 326 69q37 10 37 13q-3 16 -346 -54q58 94 182 239q30 36 36 42q7 6 20.5 14.5t20.5 14.5q5 1 51.5 3.5t82 5t79 6
t68.5 7t25 7.5q0 6 -87 6q-90 0 -199 -7q8 18 2 24z" />
    <glyph glyph-name="Eth" unicode="&#xd0;" horiz-adv-x="701" 
d="M701 394q2 42 -15.5 71t-48 41.5t-70 17.5t-82.5 -1q-118 -13 -292 -80q-86 -32 -137 -91q-47 -56 -47 -117q1 -53 34.5 -87.5t81.5 -50.5q22 -8 46 -12q-67 -125 -88 -208q-3 0 -16.5 -1.5l-22.5 -2.5t-20 -3t-17.5 -5t-6.5 -6q-1 -11 26 -15.5t49 -3.5q-3 -24 1 -24
q1 -1 10 25q47 6 108 32q116 41 223 122.5t184 181.5q78 100 95 184q4 17 5 33zM200 82q13 -1 13 0.5t-11 3.5q3 6 18 33.5t20 36.5q3 5 115 8.5t115 8.5q2 3 -35 5q-20 0 -72 1q-107 1 -107 5q5 9 34.5 61.5t43.5 77.5q5 8 11 19t8 14.5t5.5 9t7 8.5t9.5 8q23 18 16 39
q-4 12 -14 9.5t-17 -10.5q-5 -7 -16 -42q-4 -8 -74 -121q-26 -43 -43 -72q-2 -4 -75.5 -8.5t-75.5 -8.5q-2 -3 22 -5q13 -1 44 -1q65 -3 66 -7q-5 -9 -18.5 -34.5t-14.5 -28.5q-107 27 -137 94q-14 27 -9.5 58t16 53t27.5 41q47 52 130 83q173 64 286 75q124 13 166 -35
q22 -24 20 -66q-1 -27 -12 -61q-23 -66 -81 -143q-127 -169 -307 -264q-59 -30 -92 -38q-17 -4 -82 -10q31 79 100 203z" />
    <glyph glyph-name="Ntilde" unicode="&#xd1;" horiz-adv-x="660" 
d="M670 499zM26 -136q0 -1 -1 -2q1 1 1 2zM332 538q-133 -75 -195 -164q-17 -23 -13 -28q5 -5 29 11q32 23 91.5 81.5t94.5 81.5q38 24 48 12q11 -12 -8 -58q-14 -33 -44 -85q-49 -85 -156.5 -242t-124.5 -183q-2 -3 -8.5 -13t-9 -13.5t-8 -12.5t-8.5 -14.5t-7 -13.5t-7 -15
q-6 -13 -6 -22q0 -15 14.5 -16t22.5 7q19 14 62 58q66 69 211.5 232t227.5 245q69 70 106 96q19 13 27 15q0 -11 -2 -24q-5 -29 -28 -84q-16 -40 -49 -109.5t-57 -127.5t-39 -115q-9 -35 -12 -67.5t5.5 -64.5t29.5 -49q34 -29 99 -27q16 0 46 4.5t29 7.5l-15 -0.5t-34 -2
t-26 -0.5q-115 3 -120 95q-2 40 15 99q14 50 39 107q34 72 87 188q27 57 31 68q-17 -37 -56.5 -122t-57.5 -124q10 21 28 60q56 122 88 191q15 37 21 69q5 25 -2 42t-31 9q-18 -7 -49 -31q-52 -42 -146 -141q-67 -69 -194 -211t-191 -210q-40 -42 -48 -48q2 3 2 4
q12 23 41 68q13 20 120.5 180.5t157.5 247.5q30 53 44 88q30 74 -9 86q-20 5 -56 -15zM452 556q-2 4 8.5 12t28 15t31.5 7q9 0 26 -17t26 -17q10 0 22.5 6.5t21 12t10.5 3.5q3 -3 -8 -14.5t-27.5 -22t-26.5 -10.5q-12 0 -24.5 17t-23.5 20q-10 3 -25.5 -2t-26 -9t-12.5 -1z
M672 400l49 104q-11 -23 -51 -109q1 2 2 5z" />
    <glyph glyph-name="Ograve" unicode="&#xd2;" horiz-adv-x="557" 
d="M415 106q-11 -2 -37 -8t-45.5 -10t-28.5 -6q-58 -10 -103 -10q-49 0 -83 12q17 21 36 39q7 7 31.5 28.5t30.5 26.5q42 39 70 70q16 17 13 22q-3 7 -21.5 -1.5t-30.5 -16.5q-62 -42 -135 -146q-6 -8 -12 -15q-54 27 -52 92q2 48 35 107q31 57 83 109q84 83 171 107
q63 17 112 -3q46 -18 67 -57t11 -98q-13 -77 -72 -178q-19 -32 -40 -64zM106 69q32 -11 73.5 -12t83.5 6t76.5 15.5t65.5 18.5q3 1 5 2q-82 -120 -187 -211q-51 -44 -92 -66q-64 -35 -89 -10q-20 20 -20.5 55t9 62.5t22.5 54.5q25 47 53 85zM89 76q-28 -38 -49.5 -77
t-32.5 -79q-9 -40 -4.5 -74.5t30.5 -53t65.5 -8t89.5 46.5q101 72 202 200q107 135 148 253q35 101 8 165q-23 54 -84.5 78t-131.5 4q-94 -27 -181 -115q-84 -85 -112 -175q-11 -34 -8 -71.5t20 -60.5q15 -20 40 -33zM443 590q-6 4 -12 -4.5t-2 -13.5q13 -16 31.5 -28
t23.5 -7q2 2 -3.5 12.5t-16.5 22t-21 18.5z" />
    <glyph glyph-name="Oacute" unicode="&#xd3;" horiz-adv-x="557" 
d="M415 106q-11 -2 -37 -8t-45.5 -10t-28.5 -6q-58 -10 -103 -10q-49 0 -83 12q17 21 36 39q7 7 31.5 28.5t30.5 26.5q42 39 70 70q16 17 13 22q-3 7 -21.5 -1.5t-30.5 -16.5q-62 -42 -135 -146q-6 -8 -12 -15q-54 27 -52 92q2 48 35 107q31 57 83 109q84 83 171 107
q63 17 112 -3q46 -18 67 -57t11 -98q-13 -77 -72 -178q-19 -32 -40 -64zM106 69q32 -11 73.5 -12t83.5 6t76.5 15.5t65.5 18.5q3 1 5 2q-82 -120 -187 -211q-51 -44 -92 -66q-64 -35 -89 -10q-20 20 -20.5 55t9 62.5t22.5 54.5q25 47 53 85zM89 76q-28 -38 -49.5 -77
t-32.5 -79q-9 -40 -4.5 -74.5t30.5 -53t65.5 -8t89.5 46.5q101 72 202 200q107 135 148 253q35 101 8 165q-23 54 -84.5 78t-131.5 4q-94 -27 -181 -115q-84 -85 -112 -175q-11 -34 -8 -71.5t20 -60.5q15 -20 40 -33zM505 590q6 4 12 -4.5t2 -13.5q-13 -16 -31.5 -28
t-23.5 -7q-2 2 3.5 12.5t16.5 22t21 18.5z" />
    <glyph glyph-name="Ocircumflex" unicode="&#xd4;" horiz-adv-x="557" 
d="M415 84q-11 -2 -37 -8t-45.5 -10t-28.5 -6q-58 -10 -103 -10q-49 0 -83 12q17 21 36 39q7 7 31.5 28.5t30.5 26.5q42 39 70 70q16 17 13 22q-3 7 -21.5 -1.5t-30.5 -16.5q-62 -42 -135 -146q-6 -8 -12 -15q-54 27 -52 92q2 48 35 107q31 57 83 109q84 83 171 107
q63 17 112 -3q46 -18 67 -57t11 -98q-13 -77 -72 -178q-19 -32 -40 -64zM106 47q32 -11 73.5 -12t83.5 6t76.5 15.5t65.5 18.5q3 1 5 2q-82 -120 -187 -211q-51 -44 -92 -66q-64 -35 -89 -10q-20 20 -20.5 55t9 62.5t22.5 54.5q25 47 53 85zM89 54q-28 -38 -49.5 -77
t-32.5 -79q-9 -40 -4.5 -74.5t30.5 -53t65.5 -8t89.5 46.5q101 72 202 200q107 135 148 253q35 101 8 165q-23 54 -84.5 78t-131.5 4q-94 -27 -181 -115q-84 -85 -112 -175q-11 -34 -8 -71.5t20 -60.5q15 -20 40 -33zM379 530q-11 4 16 32q29 31 52 32q17 1 17 -27t-7 -33
q-5 -3 -6 5v11q1 26 -7 25q-12 -1 -35.5 -24t-29.5 -21z" />
    <glyph glyph-name="Otilde" unicode="&#xd5;" horiz-adv-x="557" 
d="M415 106q-11 -2 -37 -8t-45.5 -10t-28.5 -6q-58 -10 -103 -10q-49 0 -83 12q17 21 36 39q7 7 31.5 28.5t30.5 26.5q42 39 70 70q16 17 13 22q-3 7 -21.5 -1.5t-30.5 -16.5q-62 -42 -135 -146q-6 -8 -12 -15q-54 27 -52 92q2 48 35 107q31 57 83 109q84 83 171 107
q63 17 112 -3q46 -18 67 -57t11 -98q-13 -77 -72 -178q-19 -32 -40 -64zM106 69q32 -11 73.5 -12t83.5 6t76.5 15.5t65.5 18.5q3 1 5 2q-82 -120 -187 -211q-51 -44 -92 -66q-64 -35 -89 -10q-20 20 -20.5 55t9 62.5t22.5 54.5q25 47 53 85zM89 76q-28 -38 -49.5 -77
t-32.5 -79q-9 -40 -4.5 -74.5t30.5 -53t65.5 -8t89.5 46.5q101 72 202 200q107 135 148 253q35 101 8 165q-23 54 -84.5 78t-131.5 4q-94 -27 -181 -115q-84 -85 -112 -175q-11 -34 -8 -71.5t20 -60.5q15 -20 40 -33zM360 556q-2 4 8.5 12t28 15t31.5 7q9 0 26 -17t26 -17
q10 0 22.5 6.5t21 12t10.5 3.5q3 -3 -8 -14.5t-27.5 -22t-26.5 -10.5q-12 0 -24.5 17t-23.5 20q-10 3 -25.5 -2t-26 -9t-12.5 -1z" />
    <glyph glyph-name="Odieresis" unicode="&#xd6;" horiz-adv-x="557" 
d="M415 106q-11 -2 -37 -8t-45.5 -10t-28.5 -6q-58 -10 -103 -10q-49 0 -83 12q17 21 36 39q7 7 31.5 28.5t30.5 26.5q42 39 70 70q16 17 13 22q-3 7 -21.5 -1.5t-30.5 -16.5q-62 -42 -135 -146q-6 -8 -12 -15q-54 27 -52 92q2 48 35 107q31 57 83 109q84 83 171 107
q63 17 112 -3q46 -18 67 -57t11 -98q-13 -77 -72 -178q-19 -32 -40 -64zM106 69q32 -11 73.5 -12t83.5 6t76.5 15.5t65.5 18.5q3 1 5 2q-82 -120 -187 -211q-51 -44 -92 -66q-64 -35 -89 -10q-20 20 -20.5 55t9 62.5t22.5 54.5q25 47 53 85zM89 76q-28 -38 -49.5 -77
t-32.5 -79q-9 -40 -4.5 -74.5t30.5 -53t65.5 -8t89.5 46.5q101 72 202 200q107 135 148 253q35 101 8 165q-23 54 -84.5 78t-131.5 4q-94 -27 -181 -115q-84 -85 -112 -175q-11 -34 -8 -71.5t20 -60.5q15 -20 40 -33zM407 571q0 6 6.5 10t12.5 4q13 0 13 -14q0 -6 -4 -13
t-9 -7t-12 7t-7 13zM469 571q0 6 4.5 10t10.5 4t11.5 -4t5.5 -10t-4 -13t-9 -7t-12 7t-7 13z" />
    <glyph glyph-name="multiply" unicode="&#xd7;" horiz-adv-x="515" 
d="M473 540q3 -3 3.5 -9t-4 -18t-13.5 -25q-3 -5 -16 -16.5t-19 -19.5q-52 -82 -151 -217q93 -119 160.5 -209t61.5 -90q-11 0 -233 284q-87 -119 -162 -215.5t-81 -96.5q-4 0 28 49.5t85.5 127t111.5 158.5q-82 105 -137 179t-50 74q11 0 198 -238q94 131 152 204
q7 8 14.5 23.5t11.5 20.5q9 11 17.5 19.5t14.5 12t8 2.5z" />
    <glyph glyph-name="Oslash" unicode="&#xd8;" horiz-adv-x="557" 
d="M415 106q21 32 40 64q59 101 72 178q19 110 -69 151q-24 -56 -132 -285q-34 -73 -66 -138q20 2 44 6q9 2 28.5 6t45.5 10t37 8zM106 69q-28 -38 -53 -85q-13 -27 -22.5 -54.5t-9 -62.5t20.5 -55q21 -21 65 -2q41 96 112 248q-68 -4 -113 11zM89 76q-25 13 -40 33
q-17 23 -20 60.5t8 71.5q28 90 112 175q87 88 181 115q62 17 119 0q32 59 35 57q9 -4 -15 -64q55 -24 77 -75q27 -64 -8 -165q-41 -118 -148 -253q-101 -128 -202 -200q-38 -27 -66 -39q-52 -100 -56 -98q-6 3 30 90q-38 -10 -63.5 9t-30 53t4.5 74q19 69 82 156zM437 507
q-45 14 -100 -1q-87 -24 -171 -107q-52 -52 -83 -109q-33 -59 -35 -107q-2 -65 52 -92q6 7 12 15q73 104 135 146q4 2 10 6t16.5 9t16.5 5.5t9 -2.5q3 -5 -13 -22q-28 -31 -70 -70q-6 -5 -30.5 -26.5t-31.5 -28.5q-19 -18 -36 -39q34 -12 83 -12q12 0 25 1q127 273 211 434z
M139 -174q38 22 84 62q105 91 187 211q-2 -1 -5 -2q-77 -26 -152 -36q-69 -145 -114 -235z" />
    <glyph glyph-name="Ugrave" unicode="&#xd9;" horiz-adv-x="527" 
d="M597 433zM223 390q7 11 22 30t25 35t15 35q4 14 -8 26.5t-25 0.5q-12 -10 -25.5 -35.5t-6.5 -30.5q2 -3 7 -1q-3 -6 -7.5 -17t-8.5 -20t-8 -17l-14 -28l-27 -52q-74 -147 -103 -235q0 -1 -3.5 -10.5t-4 -12t-3.5 -11.5t-3.5 -13t-2.5 -12.5t-2.5 -14t-1 -13t0 -15
t0.5 -15.5q4 -29 24 -44t47 -4q29 12 76 56q72 69 186.5 211.5t150.5 182.5q26 29 35 38q-45 -65 -52 -79q-4 -7 -29.5 -55t-34.5 -66t-24.5 -55t-25.5 -68q-17 -61 -14 -107q6 -75 67 -105q10 -5 19 -7.5t13 -2.5h4q0 1 -3.5 2t-12.5 5t-18 9q-53 31 -55 97q-2 43 17 101
q10 31 26 65.5t27 55.5t34.5 63t30.5 55q11 19 38.5 55.5t38.5 58.5q10 21 -4 30q-4 2 -7 2q-4 0 -8.5 -1t-9 -3.5t-6.5 -3.5t-6.5 -5.5t-5.5 -4.5q-30 -25 -88 -92q-36 -43 -113 -137.5t-119 -142.5q-63 -73 -102 -105q-30 -24 -47 -27q-13 -2 -19 8t-6 27t1.5 28.5
t3.5 21.5q12 63 57 166q60 139 98 203zM452 590q-6 4 -12 -4.5t-2 -13.5q13 -16 31.5 -28t23.5 -7q2 2 -3.5 12.5t-16.5 22t-21 18.5z" />
    <glyph glyph-name="Uacute" unicode="&#xda;" horiz-adv-x="527" 
d="M597 433zM223 390q7 11 22 30t25 35t15 35q4 14 -8 26.5t-25 0.5q-12 -10 -25.5 -35.5t-6.5 -30.5q2 -3 7 -1q-3 -6 -7.5 -17t-8.5 -20t-8 -17l-14 -28l-27 -52q-74 -147 -103 -235q0 -1 -3.5 -10.5t-4 -12t-3.5 -11.5t-3.5 -13t-2.5 -12.5t-2.5 -14t-1 -13t0 -15
t0.5 -15.5q4 -29 24 -44t47 -4q29 12 76 56q72 69 186.5 211.5t150.5 182.5q26 29 35 38q-45 -65 -52 -79q-4 -7 -29.5 -55t-34.5 -66t-24.5 -55t-25.5 -68q-17 -61 -14 -107q6 -75 67 -105q10 -5 19 -7.5t13 -2.5h4q0 1 -3.5 2t-12.5 5t-18 9q-53 31 -55 97q-2 43 17 101
q10 31 26 65.5t27 55.5t34.5 63t30.5 55q11 19 38.5 55.5t38.5 58.5q10 21 -4 30q-4 2 -7 2q-4 0 -8.5 -1t-9 -3.5t-6.5 -3.5t-6.5 -5.5t-5.5 -4.5q-30 -25 -88 -92q-36 -43 -113 -137.5t-119 -142.5q-63 -73 -102 -105q-30 -24 -47 -27q-13 -2 -19 8t-6 27t1.5 28.5
t3.5 21.5q12 63 57 166q60 139 98 203zM510 590q6 4 12 -4.5t2 -13.5q-13 -16 -31.5 -28t-23.5 -7q-2 2 3.5 12.5t16.5 22t21 18.5z" />
    <glyph glyph-name="Ucircumflex" unicode="&#xdb;" horiz-adv-x="527" 
d="M597 433zM223 390q7 11 22 30t25 35t15 35q4 14 -8 26.5t-25 0.5q-12 -10 -25.5 -35.5t-6.5 -30.5q2 -3 7 -1q-3 -6 -7.5 -17t-8.5 -20t-8 -17l-14 -28l-27 -52q-74 -147 -103 -235q0 -1 -3.5 -10.5t-4 -12t-3.5 -11.5t-3.5 -13t-2.5 -12.5t-2.5 -14t-1 -13t0 -15
t0.5 -15.5q4 -29 24 -44t47 -4q29 12 76 56q72 69 186.5 211.5t150.5 182.5q26 29 35 38q-45 -65 -52 -79q-4 -7 -29.5 -55t-34.5 -66t-24.5 -55t-25.5 -68q-17 -61 -14 -107q6 -75 67 -105q10 -5 19 -7.5t13 -2.5h4q0 1 -3.5 2t-12.5 5t-18 9q-53 31 -55 97q-2 43 17 101
q10 31 26 65.5t27 55.5t34.5 63t30.5 55q11 19 38.5 55.5t38.5 58.5q10 21 -4 30q-4 2 -7 2q-4 0 -8.5 -1t-9 -3.5t-6.5 -3.5t-6.5 -5.5t-5.5 -4.5q-30 -25 -88 -92q-36 -43 -113 -137.5t-119 -142.5q-63 -73 -102 -105q-30 -24 -47 -27q-13 -2 -19 8t-6 27t1.5 28.5
t3.5 21.5q12 63 57 166q60 139 98 203zM420 528q-11 4 16 32q29 31 52 32q17 1 17 -27t-7 -33q-5 -3 -6 5v11q1 26 -7 25q-12 -1 -35.5 -24t-29.5 -21z" />
    <glyph glyph-name="Udieresis" unicode="&#xdc;" horiz-adv-x="527" 
d="M597 433zM223 390q7 11 22 30t25 35t15 35q4 14 -8 26.5t-25 0.5q-12 -10 -25.5 -35.5t-6.5 -30.5q2 -3 7 -1q-3 -6 -7.5 -17t-8.5 -20t-8 -17l-14 -28l-27 -52q-74 -147 -103 -235q0 -1 -3.5 -10.5t-4 -12t-3.5 -11.5t-3.5 -13t-2.5 -12.5t-2.5 -14t-1 -13t0 -15
t0.5 -15.5q4 -29 24 -44t47 -4q29 12 76 56q72 69 186.5 211.5t150.5 182.5q26 29 35 38q-45 -65 -52 -79q-4 -7 -29.5 -55t-34.5 -66t-24.5 -55t-25.5 -68q-17 -61 -14 -107q6 -75 67 -105q10 -5 19 -7.5t13 -2.5h4q0 1 -3.5 2t-12.5 5t-18 9q-53 31 -55 97q-2 43 17 101
q10 31 26 65.5t27 55.5t34.5 63t30.5 55q11 19 38.5 55.5t38.5 58.5q10 21 -4 30q-4 2 -7 2q-4 0 -8.5 -1t-9 -3.5t-6.5 -3.5t-6.5 -5.5t-5.5 -4.5q-30 -25 -88 -92q-36 -43 -113 -137.5t-119 -142.5q-63 -73 -102 -105q-30 -24 -47 -27q-13 -2 -19 8t-6 27t1.5 28.5
t3.5 21.5q12 63 57 166q60 139 98 203zM415 572q0 6 6.5 10t12.5 4q13 0 13 -14q0 -6 -4 -13t-9 -7t-12 7t-7 13zM477 572q0 6 4.5 10t10.5 4t11.5 -4t5.5 -10t-4 -13t-9 -7t-12 7t-7 13z" />
    <glyph glyph-name="Yacute" unicode="&#xdd;" horiz-adv-x="505" 
d="M625 463zM609 478v2v-2zM180 382q55 59 79 96q1 2 4.5 7.5t5 7.5t4 8t2 9t-0.5 9t-6 4q-3 0 -2 -3l2 -3q0 -1 -3 1l-1 1q-15 -10 -48 -44q-53 -54 -75 -92q-17 -30 -37 -68q0 -1 -7.5 -13.5t-9.5 -16t-9.5 -16t-10.5 -18.5t-9.5 -18.5t-10 -20t-9 -19t-9.5 -20.5t-8 -19
t-6 -20q-5 -14 -6.5 -27.5t0.5 -27.5t12 -22t27 -7q25 1 68 23q38 20 82 50t67.5 48t74.5 58q25 20 185 154q-8 -9 -18.5 -20.5t-16 -17.5t-7.5 -8q-45 -50 -77 -96q-178 -245 -394 -495l-2.5 -3t-3.5 -4t-3 -4t-2.5 -5t-0.5 -4.5t1 -5t4 -4.5q4 -3 7 -3q6 0 16 8
q23 19 115 109q11 10 56 55l120 122q60 59 113 99q17 13 17 14t-19 -10q-51 -29 -120 -93q-21 -20 -83.5 -81t-114.5 -110q169 198 315 400q24 33 54 68t69.5 78t58.5 65l7 7t9 10.5t6.5 10.5t3 11.5t-5.5 10.5q-4 2 -8 2t-8 -2t-6.5 -3.5t-6.5 -5t-5 -4.5q-6 -4 -138 -117
q-169 -143 -265 -211q-68 -48 -109 -65q-52 -22 -56 5q-2 15 6 43q14 45 55 120q24 44 37 63.5t41 55.5zM510 590q6 4 12 -4.5t2 -13.5q-13 -16 -31.5 -28t-23.5 -7q-2 2 3.5 12.5t16.5 22t21 18.5z" />
    <glyph glyph-name="Thorn" unicode="&#xde;" horiz-adv-x="675" 
d="M272 252q8 18 23.5 50.5t32 68.5t22.5 48q22 46 25 49q3 4 12.5 12t13.5 15q5 10 4 20t-8 13q-8 4 -16 -1.5t-13 -15.5q-4 -8 -11 -36l-37 -71q-62 -123 -77 -155q-7 -2 -29 -6.5t-38 -9.5t-23 -13q-4 -28 49 -22q9 1 19 3q-36 -82 -109 -315q-93 33 -100 136q-3 38 7 88
q6 32 4.5 31.5t-10.5 -29.5q-14 -47 -13 -91q2 -114 107 -152q-25 -79 -31.5 -107t-10.5 -52t-4 -34t1 -12q2 0 3.5 3.5t4.5 12.5t6 19t8 26.5t10 31.5q13 40 35 105q60 -15 138 -5q169 23 286 125q53 48 67 121q13 66 -19.5 108.5t-92.5 52.5q-58 7 -122.5 3t-113.5 -15z
M135 -120q85 251 117 325q24 4 83.5 17t94.5 16q39 4 70.5 -1t55.5 -19.5t35 -42.5t4 -67q-10 -56 -46 -93.5t-92 -68.5q-92 -52 -193 -68q-73 -11 -129 2z" />
    <glyph glyph-name="germandbls" unicode="&#xdf;" horiz-adv-x="675" 
d="M387 416q23 12 50 22t60.5 18.5t68.5 8t64 -13.5q24 -10 24 -19q0 -10 -22 -27t-66 -39q-100 -48 -290 -107q25 55 54 118q30 22 57 39zM397 528q-8 4 -16 -1.5t-13 -15.5q-4 -8 -11 -36q-1 -1 -37 -71q-65 -32 -104 -80q-15 -18 -21 -32t-1.5 -17t15.5 5t24 18t32 26
t24 20q-26 -52 -46 -95q-10 -3 -38 -10.5t-43 -12.5q-1 0 -3 -1q0 1 -6 -5q-5 -3 -2.5 -12.5t6.5 -9.5q4 -2 10.5 -2.5t10.5 0t12.5 1.5t11.5 1q9 1 19 3q-36 -82 -109 -315q-93 33 -100 136q-3 38 7 88q6 32 4.5 31.5t-10.5 -29.5q-14 -47 -13 -91q2 -114 107 -152
q-25 -79 -31.5 -107t-10.5 -52t-4 -34t1 -12q2 0 3.5 3.5t4.5 12.5t6 19t8 26.5t10 31.5q13 40 35 105q60 -15 138 -5q169 23 286 125q53 48 67 121q13 66 -19.5 108.5t-92.5 52.5q-12 2 -23.5 3t-23.5 0.5t-21.5 -0.5t-23 -2t-20.5 -3t-22.5 -4.5t-20 -4.5t-21 -4.5
t-19.5 -4.5q69 23 109 37t96 38t97 48q15 10 23 15t19 16t15 22q3 6 3 12q-1 24 -37 38q-17 7 -34.5 11t-37 3.5t-34.5 -1t-36 -7t-32 -9t-33.5 -12t-28.5 -12.5t-28.5 -13.5t-23.5 -10.5q21 45 25 49q3 4 12.5 12t13.5 15q5 10 4 20t-8 13zM167 222zM135 -120
q85 251 117 325q24 4 83.5 17t94.5 16q39 4 70.5 -1t55.5 -19.5t35 -42.5t4 -67q-10 -56 -46 -93.5t-92 -68.5q-92 -52 -193 -68q-73 -11 -129 2z" />
    <glyph glyph-name="agrave" unicode="&#xe0;" horiz-adv-x="282" 
d="M105 136q10 1 13 -2.5t4 -10.5t3 -10q6 -7 14 -10t16 4q11 17 -3.5 32t-35.5 16q-30 0 -60 -16q-54 -29 -70 -69q-7 -17 1.5 -31t26.5 -13q10 0 21 2t17 4.5l18 7.5t15 7q31 13 47 15q9 1 10 1q0 -3 -1 -9t-2 -10t-1.5 -10t-0.5 -10t0.5 -9.5t3 -7.5t5.5 -5t8 -2.5
t12 1.5q19 4 48.5 22t49.5 34t19 18q-2 2 -19 -6t-44 -21.5t-44 -20.5q-12 -4 -16 -4q7 30 8 32q3 18 -8.5 27t-30.5 6q-21 -3 -53.5 -16.5t-40.5 -16.5q-27 -7 -27 0q-1 9 12 26q31 41 73 53q7 2 12 2zM101 244q-6 4 -12 -4t-2 -14q13 -15 31.5 -27.5t23.5 -6.5
q2 2 -3.5 12t-16.5 22t-21 18z" />
    <glyph glyph-name="aacute" unicode="&#xe1;" horiz-adv-x="282" 
d="M105 136q10 1 13 -2.5t4 -10.5t3 -10q6 -7 14 -10t16 4q11 17 -3.5 32t-35.5 16q-30 0 -60 -16q-54 -29 -70 -69q-7 -17 1.5 -31t26.5 -13q10 0 21 2t17 4.5l18 7.5t15 7q31 13 47 15q9 1 10 1q0 -3 -1 -9t-2 -10t-1.5 -10t-0.5 -10t0.5 -9.5t3 -7.5t5.5 -5t8 -2.5
t12 1.5q19 4 48.5 22t49.5 34t19 18q-2 2 -19 -6t-44 -21.5t-44 -20.5q-12 -4 -16 -4q7 30 8 32q3 18 -8.5 27t-30.5 6q-21 -3 -53.5 -16.5t-40.5 -16.5q-27 -7 -27 0q-1 9 12 26q31 41 73 53q7 2 12 2zM139 247q6 4 12 -4.5t2 -13.5q-13 -16 -31.5 -28t-23.5 -7
q-2 2 3.5 12.5t16.5 22t21 18.5z" />
    <glyph glyph-name="acircumflex" unicode="&#xe2;" horiz-adv-x="282" 
d="M105 136q10 1 13 -2.5t4 -10.5t3 -10q6 -7 14 -10t16 4q11 17 -3.5 32t-35.5 16q-30 0 -60 -16q-54 -29 -70 -69q-7 -17 1.5 -31t26.5 -13q10 0 21 2t17 4.5l18 7.5t15 7q31 13 47 15q9 1 10 1q0 -3 -1 -9t-2 -10t-1.5 -10t-0.5 -10t0.5 -9.5t3 -7.5t5.5 -5t8 -2.5
t12 1.5q19 4 48.5 22t49.5 34t19 18q-2 2 -19 -6t-44 -21.5t-44 -20.5q-12 -4 -16 -4q7 30 8 32q3 18 -8.5 27t-30.5 6q-21 -3 -53.5 -16.5t-40.5 -16.5q-27 -7 -27 0q-1 9 12 26q31 41 73 53q7 2 12 2zM93 190q-11 4 16 32q29 31 52 32q17 1 17 -27t-7 -33q-5 -3 -6 5v11
q1 26 -7 25q-12 -1 -35.5 -24t-29.5 -21z" />
    <glyph glyph-name="atilde" unicode="&#xe3;" horiz-adv-x="282" 
d="M105 136q10 1 13 -2.5t4 -10.5t3 -10q6 -7 14 -10t16 4q11 17 -3.5 32t-35.5 16q-30 0 -60 -16q-54 -29 -70 -69q-7 -17 1.5 -31t26.5 -13q10 0 21 2t17 4.5l18 7.5t15 7q31 13 47 15q9 1 10 1q0 -3 -1 -9t-2 -10t-1.5 -10t-0.5 -10t0.5 -9.5t3 -7.5t5.5 -5t8 -2.5
t12 1.5q19 4 48.5 22t49.5 34t19 18q-2 2 -19 -6t-44 -21.5t-44 -20.5q-12 -4 -16 -4q7 30 8 32q3 18 -8.5 27t-30.5 6q-21 -3 -53.5 -16.5t-40.5 -16.5q-27 -7 -27 0q-1 9 12 26q31 41 73 53q7 2 12 2zM64 216q-2 4 8.5 12t28 15t31.5 7q9 0 26 -17t26 -17q10 0 22.5 6.5
t21 12t10.5 3.5q3 -3 -8 -14.5t-27.5 -22t-26.5 -10.5q-12 0 -24.5 17t-23.5 20q-10 3 -25.5 -2t-26 -9t-12.5 -1z" />
    <glyph glyph-name="adieresis" unicode="&#xe4;" horiz-adv-x="282" 
d="M105 136q10 1 13 -2.5t4 -10.5t3 -10q6 -7 14 -10t16 4q11 17 -3.5 32t-35.5 16q-30 0 -60 -16q-54 -29 -70 -69q-7 -17 1.5 -31t26.5 -13q10 0 21 2t17 4.5l18 7.5t15 7q31 13 47 15q9 1 10 1q0 -3 -1 -9t-2 -10t-1.5 -10t-0.5 -10t0.5 -9.5t3 -7.5t5.5 -5t8 -2.5
t12 1.5q19 4 48.5 22t49.5 34t19 18q-2 2 -19 -6t-44 -21.5t-44 -20.5q-12 -4 -16 -4q7 30 8 32q3 18 -8.5 27t-30.5 6q-21 -3 -53.5 -16.5t-40.5 -16.5q-27 -7 -27 0q-1 9 12 26q31 41 73 53q7 2 12 2zM113 212q0 5 6.5 9.5t12.5 4.5q5 0 9 -4.5t4 -9.5q0 -7 -4 -13.5
t-9 -6.5t-12 7t-7 13zM175 211.5q0 5.5 4.5 10t10.5 4.5t11.5 -4.5t5.5 -9.5q0 -7 -4 -13.5t-9 -6.5t-12 7t-7 12.5z" />
    <glyph glyph-name="aring" unicode="&#xe5;" horiz-adv-x="282" 
d="M105 136q10 1 13 -2.5t4 -10.5t3 -10q6 -7 14 -10t16 4q11 17 -3.5 32t-35.5 16q-30 0 -60 -16q-54 -29 -70 -69q-7 -17 1.5 -31t26.5 -13q10 0 21 2t17 4.5l18 7.5t15 7q31 13 47 15q9 1 10 1q0 -3 -1 -9t-2 -10t-1.5 -10t-0.5 -10t0.5 -9.5t3 -7.5t5.5 -5t8 -2.5
t12 1.5q19 4 48.5 22t49.5 34t19 18q-2 2 -19 -6t-44 -21.5t-44 -20.5q-12 -4 -16 -4q7 30 8 32q3 18 -8.5 27t-30.5 6q-21 -3 -53.5 -16.5t-40.5 -16.5q-27 -7 -27 0q-1 9 12 26q31 41 73 53q7 2 12 2zM156 220q1 6 10 16t14 7q2 -1 4 -3l-7.5 -7.5t-10.5 -8.5t-10 -4z
M191 244q0 4 -2 10.5t-5 11t-5 3.5q-2 0 -6 -8l-6.5 -3t-9 -4.5t-9 -5.5t-9 -6.5t-6 -7.5t-4.5 -9t0 -9.5t5 -11.5q6 -8 17 -10t20 4q18 12 23 30q5 16 -3 16zM155 220h-1h1z" />
    <glyph glyph-name="ae" unicode="&#xe6;" horiz-adv-x="282" 
d="M105 136q10 1 13 -2.5t4 -10.5t3 -10q6 -7 14 -10t16 4q11 17 -3.5 32t-35.5 16q-30 0 -60 -16q-54 -29 -70 -69q-7 -17 1.5 -31t26.5 -13q10 0 21 2t17 4.5l18 7.5t15 7q31 13 47 15q9 1 10 1q0 -3 -1 -9t-2 -10t-1.5 -10t-0.5 -10t0.5 -9.5t3 -7.5t5.5 -5t8 -2.5
t12 1.5q19 4 48.5 22t49.5 34t19 18q-2 2 -19 -6t-44 -21.5t-44 -20.5q-12 -4 -16 -4q7 30 8 32q3 18 -8.5 27t-30.5 6q-21 -3 -53.5 -16.5t-40.5 -16.5q-27 -7 -27 0q-1 9 12 26q31 41 73 53q7 2 12 2z" />
    <glyph glyph-name="ccedilla" unicode="&#xe7;" horiz-adv-x="172" 
d="M72 154q-1 -4 -5.5 -11t-5.5 -11t3 -13q8 -11 19.5 -7t13.5 17q0 10 -9 35q-3 10 -13.5 13t-20.5 -4q-37 -25 -70 -105q-33 -83 5 -98q-2 2 -2 5q0 6 5 20q1 3 5 6q-7 30 33 107q20 39 35 50q4 3 5 2zM2 -11q1 -2 3.5 -6t3 -6.5t-1.5 -7.5l-2 -2q8 1 18 4q-9 15 -17 20
q-2 2 -3 2zM23 -29q3 2 7 3q3 2 6 3q9 -14 19 -36q21 -48 -4 -56q-10 -3 -23 3q-9 4 -19 10q-3 2 -23 14.5t-33.5 21.5t-12.5 11t23 -7q28 -13 54 -28q19 -11 27 -11q9 0 -0.5 26t-15.5 38q-4 6 -5 8zM36 -23q12 6 25 16q4 3 37.5 25t55.5 38t20 19q-2 4 -38 -13
q-46 -21 -89 -49q-23 -14 -29 -16q9 -8 18 -20zM18 -3q-8 -3 -15 -3q-2 0 -4 1.5t-2 5.5q7 4 16 -1q2 -2 5 -3zM-11 -30q1 -1 3 -1q6 -2 13 -2q-9 -7 -16 3z" />
    <glyph glyph-name="egrave" unicode="&#xe8;" horiz-adv-x="174" 
d="M94 171q-5 -24 -23 -50q-9 -13 -14 -16t-13.5 -4.5t-13.5 -4.5q-6 -5 -8 -13t1 -14q4 -7 12.5 -7.5t17.5 5.5q9 7 19 26q38 44 44 75q1 4 1 8q0 11 -10 16t-21 1q-24 -10 -54 -43q-20 -23 -33 -45t-17 -49q-5 -36 20 -60q60 -26 143 47q32 27 29 31q-2 2 -18 -7.5
t-36 -21.5t-26 -15q-50 -25 -78 -13q-23 26 12 84q27 44 58 65q1 1 8 5zM82 256q-6 4 -12 -4.5t-2 -13.5q13 -16 31.5 -28t23.5 -7q2 2 -3.5 12.5t-16.5 22t-21 18.5z" />
    <glyph glyph-name="eacute" unicode="&#xe9;" horiz-adv-x="174" 
d="M94 171q-5 -24 -23 -50q-9 -13 -14 -16t-13.5 -4.5t-13.5 -4.5q-6 -5 -8 -13t1 -14q4 -7 12.5 -7.5t17.5 5.5q9 7 19 26q38 44 44 75q1 4 1 8q0 11 -10 16t-21 1q-24 -10 -54 -43q-20 -23 -33 -45t-17 -49q-5 -36 20 -60q60 -26 143 47q32 27 29 31q-2 2 -18 -7.5
t-36 -21.5t-26 -15q-50 -25 -78 -13q-23 26 12 84q27 44 58 65q1 1 8 5zM117 260q6 4 12 -4.5t2 -13.5q-13 -16 -31.5 -28t-23.5 -7q-2 2 3.5 12.5t16.5 22t21 18.5z" />
    <glyph glyph-name="ecircumflex" unicode="&#xea;" horiz-adv-x="174" 
d="M94 171q-5 -24 -23 -50q-9 -13 -14 -16t-13.5 -4.5t-13.5 -4.5q-6 -5 -8 -13t1 -14q4 -7 12.5 -7.5t17.5 5.5q9 7 19 26q38 44 44 75q1 4 1 8q0 11 -10 16t-21 1q-24 -10 -54 -43q-20 -23 -33 -45t-17 -49q-5 -36 20 -60q60 -26 143 47q32 27 29 31q-2 2 -18 -7.5
t-36 -21.5t-26 -15q-50 -25 -78 -13q-23 26 12 84q27 44 58 65q1 1 8 5zM63 211q-11 4 16 32q29 31 52 32q17 1 17 -27t-7 -33q-5 -3 -6 5v11q1 26 -7 25q-12 -1 -35.5 -24t-29.5 -21z" />
    <glyph glyph-name="edieresis" unicode="&#xeb;" horiz-adv-x="174" 
d="M94 171q-5 -24 -23 -50q-9 -13 -14 -16t-13.5 -4.5t-13.5 -4.5q-6 -5 -8 -13t1 -14q4 -7 12.5 -7.5t17.5 5.5q9 7 19 26q38 44 44 75q1 4 1 8q0 11 -10 16t-21 1q-24 -10 -54 -43q-20 -23 -33 -45t-17 -49q-5 -36 20 -60q60 -26 143 47q32 27 29 31q-2 2 -18 -7.5
t-36 -21.5t-26 -15q-50 -25 -78 -13q-23 26 12 84q27 44 58 65q1 1 8 5zM62 236q0 6 6.5 10t12.5 4q13 0 13 -14q0 -6 -4 -13t-9 -7t-12 7t-7 13zM124 236q0 6 4.5 10t10.5 4t11.5 -4t5.5 -10t-4 -13t-9 -7t-12 7t-7 13z" />
    <glyph glyph-name="igrave" unicode="&#xec;" horiz-adv-x="151" 
d="M33 159q-14 6 -19.5 -2.5t-5.5 -24.5q-4 -10 -14 -31.5t-17.5 -41.5t-9.5 -40t7.5 -33.5t28.5 -10.5q15 3 35 14q11 8 39 28.5t50.5 37.5l22.5 17q-3 3 -33.5 -13.5t-67.5 -36t-50 -20.5h-3q-7 20 5.5 65.5t24.5 57.5q2 2 9 6t8 7q3 6 -0.5 12t-9.5 9zM35 246
q-6 4 -12 -4.5t-2 -13.5q13 -16 31.5 -28t23.5 -7q2 2 -3.5 12.5t-16.5 22t-21 18.5z" />
    <glyph glyph-name="iacute" unicode="&#xed;" horiz-adv-x="151" 
d="M33 159q-14 6 -19.5 -2.5t-5.5 -24.5q-4 -10 -14 -31.5t-17.5 -41.5t-9.5 -40t7.5 -33.5t28.5 -10.5q15 3 35 14q11 8 39 28.5t50.5 37.5l22.5 17q-3 3 -33.5 -13.5t-67.5 -36t-50 -20.5h-3q-7 20 5.5 65.5t24.5 57.5q2 2 9 6t8 7q3 6 -0.5 12t-9.5 9zM73 247
q6 4 12 -4.5t2 -13.5q-13 -16 -31.5 -28t-23.5 -7q-2 2 3.5 12.5t16.5 22t21 18.5z" />
    <glyph glyph-name="icircumflex" unicode="&#xee;" horiz-adv-x="151" 
d="M33 159q-14 6 -19.5 -2.5t-5.5 -24.5q-4 -10 -14 -31.5t-17.5 -41.5t-9.5 -40t7.5 -33.5t28.5 -10.5q15 3 35 14q11 8 39 28.5t50.5 37.5l22.5 17q-3 3 -33.5 -13.5t-67.5 -36t-50 -20.5h-3q-7 20 5.5 65.5t24.5 57.5q2 2 9 6t8 7q3 6 -0.5 12t-9.5 9zM16 192
q-11 4 16 32q29 31 52 32q17 1 17 -27t-7 -33q-5 -3 -6 5v11q1 26 -7 25q-12 -1 -35.5 -24t-29.5 -21z" />
    <glyph glyph-name="idieresis" unicode="&#xef;" horiz-adv-x="151" 
d="M33 159q-14 6 -19.5 -2.5t-5.5 -24.5q-4 -10 -14 -31.5t-17.5 -41.5t-9.5 -40t7.5 -33.5t28.5 -10.5q15 3 35 14q11 8 39 28.5t50.5 37.5l22.5 17q-3 3 -33.5 -13.5t-67.5 -36t-50 -20.5h-3q-7 20 5.5 65.5t24.5 57.5q2 2 9 6t8 7q3 6 -0.5 12t-9.5 9zM14 212
q0 5 6.5 9.5t12.5 4.5q5 0 9 -4.5t4 -9.5q0 -7 -4 -13.5t-9 -6.5t-12 7t-7 13zM76 211.5q0 5.5 4.5 10t10.5 4.5t11.5 -4.5t5.5 -9.5q0 -7 -4 -13.5t-9 -6.5t-12 7t-7 12.5z" />
    <glyph glyph-name="eth" unicode="&#xf0;" horiz-adv-x="148" 
d="M79 68q12 -4 24 -5t22 0.5t14.5 3.5t3.5 3q0 1 -4 1t-14 1t-20 3.5t-19 6.5q9 20 14 40q10 40 -7 62q-2 2 -13 46q0 2 19 8t18 8t-21 2.5t-21 2.5q-4 16 -8 24.5t-7 6.5q-4 -2 -1 -35q1 -2 -21 -8.5t-22 -8.5t23 -1.5t23 -1.5q1 -10 1 -18.5t-2 -8.5q-28 4 -47 -11
t-13 -43q2 -8 5 -15q-4 -10 -10 -34l-7.5 -17t-13 -30t-11.5 -32t-8 -31q-2 -16 7 -26.5t25 -2.5q17 8 40 36q33 38 51 74zM-23 -22q-3 7 6.5 35t20.5 53l10 25q4 5 11 11q12 -14 29 -24q-26 -50 -59 -85q-14 -14 -18 -15zM-22 -22l1 -1q-1 0 -1 1zM40 118q5 10 4.5 20
t-6.5 14q-6 3 -14 -1q-3 17 10 22q11 5 25 1.5t17 -11.5q7 -18 -11 -60q-1 -3 -3 -7q-13 9 -22 21v1z" />
    <glyph glyph-name="ntilde" unicode="&#xf1;" horiz-adv-x="310" 
d="M154 154zM145 159v1v-1zM53 124q6 10 5.5 19.5t-7 13.5t-15 -0.5t-14.5 -14.5q-5 -9 -13 -35q0 -1 -3 -6t-6 -10.5t-7 -13t-6 -15t-3 -14t2.5 -11t10.5 -6.5q11 -2 28 12q19 15 56.5 51t59.5 52q1 1 2.5 2l1.5 1q0 -3 -1 -7t-2 -8.5t-1 -6.5q-1 -4 -4.5 -19.5t-5.5 -25
t-4 -25.5t-1 -26t4 -21.5t11.5 -17.5t20.5 -8q26 -3 67 23q19 11 51 38t29 30q-1 2 -18.5 -8.5t-40.5 -24.5t-31 -18l-7.5 -4t-11 -6t-11 -5t-12.5 -3t-10.5 0.5t-8.5 5t-5 12.5q-4 27 9 71t10 68q-2 12 -12 16t-21 -2q-16 -9 -46 -39q-7 -6 -35.5 -35.5t-45.5 -43.5
q-7 -5 -7 -6q1 6 11 26q7 15 10 19t11 10q13 10 16 16zM82 216q-2 4 8.5 12t28 15t31.5 7q9 0 26 -17t26 -17q10 0 22.5 6.5t21 12t10.5 3.5q3 -3 -8 -14.5t-27.5 -22t-26.5 -10.5q-12 0 -24.5 17t-23.5 20q-10 3 -25.5 -2t-26 -9t-12.5 -1z" />
    <glyph glyph-name="ograve" unicode="&#xf2;" horiz-adv-x="148" 
d="M79 68q12 -4 24 -5t22 0.5t14.5 3.5t3.5 3q0 1 -4 1t-14 1t-20 3.5t-19 6.5q9 20 14 40q8 31 -2 53t-37 25q-28 4 -47 -11t-13 -43q2 -8 5 -15q-4 -10 -10 -34l-7.5 -17t-13 -30t-11.5 -32t-8 -31q-2 -16 7 -26.5t25 -2.5q17 8 40 36q33 38 51 74zM-23 -22q-3 7 6.5 35
t20.5 53l10 25q4 5 11 11q12 -14 29 -24q-26 -50 -59 -85q-14 -14 -18 -15zM-22 -22l1 -1q-1 0 -1 1zM40 118q5 10 4.5 20t-6.5 14q-6 3 -14 -1q-3 17 10 22q11 5 25 1.5t17 -11.5q7 -18 -11 -60q-1 -3 -3 -7q-13 9 -22 21v1zM58 278q-6 4 -12 -4.5t-2 -13.5
q13 -16 31.5 -28t23.5 -7q2 2 -3.5 12.5t-16.5 22t-21 18.5z" />
    <glyph glyph-name="oacute" unicode="&#xf3;" horiz-adv-x="148" 
d="M79 68q12 -4 24 -5t22 0.5t14.5 3.5t3.5 3q0 1 -4 1t-14 1t-20 3.5t-19 6.5q9 20 14 40q8 31 -2 53t-37 25q-28 4 -47 -11t-13 -43q2 -8 5 -15q-4 -10 -10 -34l-7.5 -17t-13 -30t-11.5 -32t-8 -31q-2 -16 7 -26.5t25 -2.5q17 8 40 36q33 38 51 74zM-23 -22q-3 7 6.5 35
t20.5 53l10 25q4 5 11 11q12 -14 29 -24q-26 -50 -59 -85q-14 -14 -18 -15zM-22 -22l1 -1q-1 0 -1 1zM40 118q5 10 4.5 20t-6.5 14q-6 3 -14 -1q-3 17 10 22q11 5 25 1.5t17 -11.5q7 -18 -11 -60q-1 -3 -3 -7q-13 9 -22 21v1zM96 276q6 4 12 -4.5t2 -13.5q-13 -16 -31.5 -28
t-23.5 -7q-2 2 3.5 12.5t16.5 22t21 18.5z" />
    <glyph glyph-name="ocircumflex" unicode="&#xf4;" horiz-adv-x="148" 
d="M79 68q12 -4 24 -5t22 0.5t14.5 3.5t3.5 3q0 1 -4 1t-14 1t-20 3.5t-19 6.5q9 20 14 40q8 31 -2 53t-37 25q-28 4 -47 -11t-13 -43q2 -8 5 -15q-4 -10 -10 -34l-7.5 -17t-13 -30t-11.5 -32t-8 -31q-2 -16 7 -26.5t25 -2.5q17 8 40 36q33 38 51 74zM-23 -22q-3 7 6.5 35
t20.5 53l10 25q4 5 11 11q12 -14 29 -24q-26 -50 -59 -85q-14 -14 -18 -15zM-22 -22l1 -1q-1 0 -1 1zM40 118q5 10 4.5 20t-6.5 14q-6 3 -14 -1q-3 17 10 22q11 5 25 1.5t17 -11.5q7 -18 -11 -60q-1 -3 -3 -7q-13 9 -22 21v1zM27 217q-11 4 16 32q29 31 52 32q17 1 17 -27
t-7 -33q-5 -3 -6 5v11q1 26 -7 25q-12 -1 -35.5 -24t-29.5 -21z" />
    <glyph glyph-name="otilde" unicode="&#xf5;" horiz-adv-x="148" 
d="M79 68q12 -4 24 -5t22 0.5t14.5 3.5t3.5 3q0 1 -4 1t-14 1t-20 3.5t-19 6.5q9 20 14 40q8 31 -2 53t-37 25q-28 4 -47 -11t-13 -43q2 -8 5 -15q-4 -10 -10 -34l-7.5 -17t-13 -30t-11.5 -32t-8 -31q-2 -16 7 -26.5t25 -2.5q17 8 40 36q33 38 51 74zM-23 -22q-3 7 6.5 35
t20.5 53l10 25q4 5 11 11q12 -14 29 -24q-26 -50 -59 -85q-14 -14 -18 -15zM-22 -22l1 -1q-1 0 -1 1zM40 118q5 10 4.5 20t-6.5 14q-6 3 -14 -1q-3 17 10 22q11 5 25 1.5t17 -11.5q7 -18 -11 -60q-1 -3 -3 -7q-13 9 -22 21v1zM-4 237q-2 4 8.5 12t28 15t31.5 7q9 0 26 -17
t26 -17q10 0 22.5 6.5t21 12t10.5 3.5q3 -3 -8 -14.5t-27.5 -22t-26.5 -10.5q-12 0 -24.5 17t-23.5 20q-10 3 -25.5 -2t-26 -9t-12.5 -1z" />
    <glyph glyph-name="odieresis" unicode="&#xf6;" horiz-adv-x="148" 
d="M79 68q12 -4 24 -5t22 0.5t14.5 3.5t3.5 3q0 1 -4 1t-14 1t-20 3.5t-19 6.5q9 20 14 40q8 31 -2 53t-37 25q-28 4 -47 -11t-13 -43q2 -8 5 -15q-4 -10 -10 -34l-7.5 -17t-13 -30t-11.5 -32t-8 -31q-2 -16 7 -26.5t25 -2.5q17 8 40 36q33 38 51 74zM-23 -22q-3 7 6.5 35
t20.5 53l10 25q4 5 11 11q12 -14 29 -24q-26 -50 -59 -85q-14 -14 -18 -15zM-22 -22l1 -1q-1 0 -1 1zM40 118q5 10 4.5 20t-6.5 14q-6 3 -14 -1q-3 17 10 22q11 5 25 1.5t17 -11.5q7 -18 -11 -60q-1 -3 -3 -7q-13 9 -22 21v1zM31 240q0 6 6.5 10t12.5 4q13 0 13 -14
q0 -6 -4 -13t-9 -7t-12 7t-7 13zM93 240q0 6 4.5 10t10.5 4t11.5 -4t5.5 -10t-4 -13t-9 -7t-12 7t-7 13z" />
    <glyph glyph-name="divide" unicode="&#xf7;" horiz-adv-x="194" 
d="M90 254q0 7 8 12.5t15.5 5.5t15.5 -5.5t8 -12.5t-9.5 -15.5t-16.5 -8.5t-14 8t-7 16zM70 158q0 7 8 12.5t15.5 5.5t15.5 -5.5t8 -12.5t-9.5 -15.5t-16.5 -8.5t-14 8t-7 16zM19 205q0 5 39 7t78 0t39 -7q0 -10 -77.5 -10t-78.5 10z" />
    <glyph glyph-name="oslash" unicode="&#xf8;" horiz-adv-x="148" 
d="M79 68q12 -4 24 -5t22 0.5t14.5 3.5t3.5 3q0 1 -4 1t-14 1t-20 3.5t-19 6.5q9 20 14 40q8 31 -2 53t-37 25q-28 4 -47 -11t-13 -43q2 -8 5 -15q-4 -10 -10 -34l-7.5 -17t-13 -30t-11.5 -32t-8 -31q-2 -16 7 -26.5t25 -2.5q17 8 40 36q33 38 51 74zM-23 -22q-3 7 6.5 35
t20.5 53l10 25q4 5 11 11q12 -14 29 -24q-26 -50 -59 -85q-14 -14 -18 -15zM-22 -22l1 -1q-1 0 -1 1zM40 118q5 10 4.5 20t-6.5 14q-6 3 -14 -1q-3 17 10 22q11 5 25 1.5t17 -11.5q7 -18 -11 -60q-1 -3 -3 -7q-13 9 -22 21v1z" />
    <glyph glyph-name="ugrave" unicode="&#xf9;" horiz-adv-x="269" 
d="M155 90q-7 -12 -13.5 -30t-10.5 -34.5t-3 -25.5q3 -39 47 -8q18 14 53 47t32 37q-2 2 -25 -19t-49 -41t-32 -16q-6 3 0.5 21.5t22.5 51t20 41.5q9 22 -6 27q-12 3 -29 -11q-3 -3 -37 -36t-61.5 -53.5t-46.5 -21.5q-34 -2 20 96q5 9 5 10q1 5 -4 11t-11 6q-17 1 -30 -41.5
t-13 -68.5q0 -16 9 -25.5t25 -6.5q42 9 78 33t59 57zM101 244q-6 4 -12 -4t-2 -14q13 -15 31.5 -27.5t23.5 -6.5q2 2 -3.5 12t-16.5 22t-21 18z" />
    <glyph glyph-name="uacute" unicode="&#xfa;" horiz-adv-x="269" 
d="M155 90q-7 -12 -13.5 -30t-10.5 -34.5t-3 -25.5q3 -39 47 -8q18 14 53 47t32 37q-2 2 -25 -19t-49 -41t-32 -16q-6 3 0.5 21.5t22.5 51t20 41.5q9 22 -6 27q-12 3 -29 -11q-3 -3 -37 -36t-61.5 -53.5t-46.5 -21.5q-34 -2 20 96q5 9 5 10q1 5 -4 11t-11 6q-17 1 -30 -41.5
t-13 -68.5q0 -16 9 -25.5t25 -6.5q42 9 78 33t59 57zM139 247q6 4 12 -4.5t2 -13.5q-13 -16 -31.5 -28t-23.5 -7q-2 2 3.5 12.5t16.5 22t21 18.5z" />
    <glyph glyph-name="ucircumflex" unicode="&#xfb;" horiz-adv-x="269" 
d="M155 90q-7 -12 -13.5 -30t-10.5 -34.5t-3 -25.5q3 -39 47 -8q18 14 53 47t32 37q-2 2 -25 -19t-49 -41t-32 -16q-6 3 0.5 21.5t22.5 51t20 41.5q9 22 -6 27q-12 3 -29 -11q-3 -3 -37 -36t-61.5 -53.5t-46.5 -21.5q-34 -2 20 96q5 9 5 10q1 5 -4 11t-11 6q-17 1 -30 -41.5
t-13 -68.5q0 -16 9 -25.5t25 -6.5q42 9 78 33t59 57zM93 190q-11 4 16 32q29 31 52 32q17 1 17 -27t-7 -33q-5 -3 -6 5v11q1 26 -7 25q-12 -1 -35.5 -24t-29.5 -21z" />
    <glyph glyph-name="udieresis" unicode="&#xfc;" horiz-adv-x="269" 
d="M155 90q-7 -12 -13.5 -30t-10.5 -34.5t-3 -25.5q3 -39 47 -8q18 14 53 47t32 37q-2 2 -25 -19t-49 -41t-32 -16q-6 3 0.5 21.5t22.5 51t20 41.5q9 22 -6 27q-12 3 -29 -11q-3 -3 -37 -36t-61.5 -53.5t-46.5 -21.5q-34 -2 20 96q5 9 5 10q1 5 -4 11t-11 6q-17 1 -30 -41.5
t-13 -68.5q0 -16 9 -25.5t25 -6.5q42 9 78 33t59 57zM64 216q-2 4 8.5 12t28 15t31.5 7q9 0 26 -17t26 -17q10 0 22.5 6.5t21 12t10.5 3.5q3 -3 -8 -14.5t-27.5 -22t-26.5 -10.5q-12 0 -24.5 17t-23.5 20q-10 3 -25.5 -2t-26 -9t-12.5 -1z" />
    <glyph glyph-name="yacute" unicode="&#xfd;" horiz-adv-x="237" 
d="M50 160q1 3 -4 8t-8 1q-4 -2 -4 -3q-55 -70 -51 -140q1 -21 17 -29.5t37 2.5q5 2 9.5 5t9.5 6.5t8.5 6t8.5 7.5t8 7.5t8.5 8t7 7.5t7.5 8.5t8 8.5q4 4 26 30t36 39q-16 -53 -57 -147q-7 -17 -14 -32q-11 -11 -23 -22q-41 -39 -75 -76.5t-58 -77.5q-22 -35 -25 -57
q-2 -15 5.5 -25t20.5 -12q13 2 25 10t17.5 14t16.5 19q44 56 98 168q20 41 33 70q18 18 39 37.5t28.5 26.5t6.5 8q0 1 -7.5 -3.5t-22 -15t-32.5 -24.5q34 80 51 149v26q-5 2 -11 5q-5 -2 -9 -4.5t-9 -7t-7 -6.5t-7.5 -8t-6.5 -7q-10 -10 -38.5 -44t-45.5 -50
q-23 -24 -38 -31q-10 -6 -18.5 -3t-9.5 15q0 5 0.5 10t1.5 8.5t3.5 8.5l3.5 7t4.5 7t3.5 6q11 17 16 25t11 26t5 34zM139 247q6 4 12 -4.5t2 -13.5q-13 -16 -31.5 -28t-23.5 -7q-2 2 3.5 12.5t16.5 22t21 18.5zM-52 -290zM-52 -290l-0.5 3t-0.5 5q2 16 20 47q37 62 116 145
q-40 -84 -79 -141q-29 -44 -48 -56q-5 -4 -7 -4z" />
    <glyph glyph-name="thorn" unicode="&#xfe;" horiz-adv-x="168" 
d="M138 343q9 19 -7.5 26t-24.5 -10q-3 -5 -5 -16.5t-4 -15.5q-54 -115 -133.5 -306t-99.5 -275q-12 -48 -7 -49q2 -1 6 7t10.5 22.5t11 26t10.5 27.5t7 18q32 83 87 228q10 2 16 9t13 22t8 17q13 15 43 38t51 33q10 4 14 5q-1 -14 -17 -43q-6 -10 -12 -21q-61 -24 -94 -52
q-38 -32 -18 -59q10 -13 24 -13.5t28 10.5t27.5 25t26.5 32.5t21 31t13 22.5q36 18 35 20q-1 3 -26 -4l2.5 5.5t3.5 7.5l4 8t3.5 9.5t2 9t1.5 9.5t-0.5 8.5t-3 8t-6.5 5.5q-13 9 -39 -5q-24 -13 -64 -46q-8 -8 -15.5 -15t-12.5 -12l-6 -6q9 23 54.5 128t50.5 111q3 3 11 8
t10 10zM-48 -71q-1 -3 -1 -4q1 2 1 4zM137 150zM86 57q-12 -15 -19 -24t-18.5 -21.5t-23.5 -19.5q-5 -4 -8 -5q-4 3 -4.5 7.5t3 9.5t8.5 10.5t13 11t14 10t14 9.5l12 7.5t9 4.5z" />
    <glyph glyph-name="ydieresis" unicode="&#xff;" horiz-adv-x="237" 
d="M50 160q1 3 -4 8t-8 1q-4 -2 -4 -3q-55 -70 -51 -140q1 -21 17 -29.5t37 2.5q5 2 9.5 5t9.5 6.5t8.5 6t8.5 7.5t8 7.5t8.5 8t7 7.5t7.5 8.5t8 8.5q4 4 26 30t36 39q-16 -53 -57 -147q-7 -17 -14 -32q-11 -11 -23 -22q-41 -39 -75 -76.5t-58 -77.5q-22 -35 -25 -57
q-2 -15 5.5 -25t20.5 -12q13 2 25 10t17.5 14t16.5 19q44 56 98 168q20 41 33 70q18 18 39 37.5t28.5 26.5t6.5 8q0 1 -7.5 -3.5t-22 -15t-32.5 -24.5q34 80 51 149v26q-5 2 -11 5q-5 -2 -9 -4.5t-9 -7t-7 -6.5t-7.5 -8t-6.5 -7q-10 -10 -38.5 -44t-45.5 -50
q-23 -24 -38 -31q-10 -6 -18.5 -3t-9.5 15q0 5 0.5 10t1.5 8.5t3.5 8.5l3.5 7t4.5 7t3.5 6q11 17 16 25t11 26t5 34zM70 213q0 6 6.5 10t12.5 4q13 0 13 -14q0 -6 -4 -13t-9 -7t-12 7t-7 13zM132 213q0 6 4.5 10t10.5 4t11.5 -4t5.5 -10t-4 -13t-9 -7t-12 7t-7 13zM-52 -290
zM-52 -290l-0.5 3t-0.5 5q2 16 20 47q37 62 116 145q-40 -84 -79 -141q-29 -44 -48 -56q-5 -4 -7 -4z" />
    <glyph glyph-name="OE" unicode="&#x152;" horiz-adv-x="957" 
d="M392 306q-38 -59 -25 -68q6 -5 22.5 9.5t32.5 39.5q23 34 41 85q8 17 14 36t9 42.5t-5.5 42t-30.5 24.5q-37 11 -96 -16q-80 -37 -152 -118q-99 -109 -154 -292q-16 -56 -24 -106q-6 -33 -5 -67.5t8 -63t27.5 -47t51.5 -18.5q40 -1 94 27q58 30 130 92q79 66 121 105
q1 -30 17 -52q59 -79 308 -29q38 7 69 15.5t45.5 13.5t14.5 6q-1 2 -14 0t-50 -8t-68 -10q-4 -1 -14 -2q-25 -4 -40 -5.5t-44 -5t-48 -3t-45 2t-43 7.5t-32.5 15.5t-22.5 25t-6 36.5q1 10 3 20q4 4 10.5 9.5t10.5 9t7.5 7l5 5t1.5 2.5q-2 2 -33 -20q8 29 37 79
q153 23 326 69q37 10 37 13q-3 16 -346 -54q59 94 182 239q30 36 36 42q7 6 20.5 14.5t20.5 14.5q5 1 51.5 3.5t82 5t79.5 6t68.5 7t24.5 7.5q0 6 -87 6q-90 0 -199 -7q9 18 2 24q-8 7 -22 -3t-26 -24q-59 -5 -133 -14q-89 -11 -92 -11q-4 1 -14.5 5t-17.5 3
q-10 -1 -17 -7.5t-6 -13.5t9 -11.5t18 -3.5q7 1 32 10q32 4 201 15q-11 -16 -45 -55q-147 -166 -203 -259q-106 -20 -121 -15q-3 1 -11.5 5.5t-13.5 5.5q-13 0 -19.5 -9t-1.5 -18t20 -9q9 -1 30 5q71 5 102 9q-31 -58 -35 -98q-5 -4 -134 -106q-74 -60 -128 -87
q-93 -46 -126 -1q-30 40 -13 146q14 96 60 206q68 160 181 249q56 43 103 58q22 8 44.5 4t27.5 -24q7 -25 -3.5 -56t-24.5 -51q-12 -17 -23.5 -30t-23.5 -31z" />
    <glyph glyph-name="oe" unicode="&#x153;" horiz-adv-x="289" 
d="M77 68q12 -4 24 -5h3q-1 -4 -1 -7q-5 -36 20 -60q60 -26 143 47q32 27 29 31q-2 2 -18 -7.5t-36 -21.5t-26 -15q-50 -25 -78 -13q-14 17 -4 48q9 3 8 5q0 1 -6 1q5 15 14 30q27 44 58 65q1 1 8 5q-5 -24 -23 -50q-9 -13 -14 -16t-13.5 -4.5t-13.5 -4.5q-6 -5 -8 -13
t1 -14q4 -7 12.5 -7.5t17.5 5.5q9 7 19 26q38 44 44 75q1 4 1 8q0 11 -10 16t-21 1q-24 -10 -54 -43q-36 -40 -46 -76q-2 1 -4 1q-10 3 -19 7q9 20 14 40q8 31 -2 53t-37 25q-28 4 -47 -11t-13 -43q2 -8 5 -15q-4 -10 -10 -34l-7.5 -17t-13 -30t-11.5 -32t-8 -31
q-2 -16 7 -26.5t25 -2.5q17 8 40 36q33 38 51 74zM-25 -22q-3 7 6.5 35t20.5 53l10 25q4 5 11 11q12 -14 29 -24q-26 -50 -59 -85q-14 -14 -18 -15zM-24 -22l1 -1q-1 0 -1 1zM38 118q5 10 4.5 20t-6.5 14q-6 3 -14 -1q-3 17 10 22q11 5 25 1.5t17 -11.5q7 -18 -11 -60
q-1 -3 -3 -7q-13 9 -22 21v1z" />
    <glyph glyph-name="Scaron" unicode="&#x160;" horiz-adv-x="707" 
d="M489 569q3 4 -3 11.5t-13.5 11t-11.5 -0.5q-2 -2 -3 -12q-15 -20 -28 -38q-3 48 -11 48q-4 0 -9 -22t-6.5 -44t3.5 -33q2 -4 10 -5q11 1 23 21t21.5 40.5t12.5 21.5t6 0.5t5.5 -0.5t3.5 1zM627 387q-45 -25 -89.5 -56t-39.5 -39q5 -9 56 15t92 50q62 41 120 91
q60 52 27 74q-23 15 -96 2q-124 -22 -300 -96q-160 -67 -259 -137q-76 -54 -101 -101q-6 -13 -10 -26t-1 -27.5t15 -20.5q24 -12 99 -19q87 -9 256.5 -12t217.5 -6q-31 -19 -70 -38q-29 0 -125 -19q-86 -17 -246 -75q-6 -2 -38.5 -13.5t-46.5 -16.5t-37.5 -16t-38.5 -21
q-18 -12 -9 -22q3 -4 9 -5.5t15 -0.5t15 1.5t16.5 3t11.5 2.5q75 14 186 48q229 70 354 140q29 16 49 32q6 3 4.5 12t-8.5 10q-9 3 -50 5q-45 2 -211 5.5t-251 11.5q-3 0 -18.5 1.5t-21 2t-17 2.5t-19 4t-14.5 6q-2 1 -2 2q-3 25 23 59q42 55 153 119q162 94 361 157
q88 27 142 34q55 6 54 -9q0 -5 -5 -12q-11 -16 -29.5 -31t-31.5 -22.5t-37 -20.5q-5 -2 -23.5 -12t-30.5 -16zM20 -140zM16 -126h1h-1zM47 -124q80 37 250 98q28 11 63.5 21t52.5 14t65.5 14.5t54.5 12.5q-46 -22 -135 -55q-181 -68 -351 -105zM642 99q1 0 1 1q0 -1 -1 -1z
" />
    <glyph glyph-name="scaron" unicode="&#x161;" horiz-adv-x="190" 
d="M62 30q-63 -27 -81 -54q-4 -6 -4 -15t6 -14q9 -9 23.5 -10t29.5 4t26.5 11t19.5 11q55 39 35 66q-1 2 -3 3q11 6 25 12t21.5 9.5t14.5 7.5t10 6t3 3q-1 1 -12 -1t-32.5 -8.5t-46.5 -15.5q-10 5 -38.5 13.5t-40.5 16.5q-19 16 33 47q20 12 27 14q5 1 18 1t17 3
q10 4 15.5 12t2.5 15t-12.5 8.5t-19.5 -2.5q-10 -5 -31 -21q-2 -1 -10 -4.5t-11.5 -5.5t-11.5 -6.5t-12.5 -7.5t-11 -8t-10 -9.5t-6.5 -10.5t-4 -11q-2 -12 2.5 -21t16.5 -16t20.5 -10.5t25.5 -9.5q4 -1 6 -2zM96 14q0 -1 -1 -2q-35 -47 -85 -48q-2 0 -5 1q4 5 5 6
q20 19 76 48q1 0 2 1q2 -1 3 -2q4 -3 5 -4zM124 315q-2 1 -6.5 -5.5t-9.5 -17l-10 -21t-10 -18t-8 -8.5q-2 3 -2 20.5v33t-2 15.5q-4 0 -9 -22.5t-6.5 -44.5t3.5 -33q3 -6 10 -5q14 1 25.5 12t17.5 26t9 30t2 25.5t-4 12.5z" />
    <glyph glyph-name="Ydieresis" unicode="&#x178;" horiz-adv-x="505" 
d="M625 463zM609 478v2v-2zM180 382q55 59 79 96q1 2 4.5 7.5t5 7.5t4 8t2 9t-0.5 9t-6 4q-3 0 -2 -3l2 -3q0 -1 -3 1l-1 1q-15 -10 -48 -44q-53 -54 -75 -92q-17 -30 -37 -68q0 -1 -7.5 -13.5t-9.5 -16t-9.5 -16t-10.5 -18.5t-9.5 -18.5t-10 -20t-9 -19t-9.5 -20.5t-8 -19
t-6 -20q-5 -14 -6.5 -27.5t0.5 -27.5t12 -22t27 -7q25 1 68 23q38 20 82 50t67.5 48t74.5 58q25 20 185 154q-8 -9 -18.5 -20.5t-16 -17.5t-7.5 -8q-45 -50 -77 -96q-178 -245 -394 -495l-2.5 -3t-3.5 -4t-3 -4t-2.5 -5t-0.5 -4.5t1 -5t4 -4.5q4 -3 7 -3q6 0 16 8
q23 19 115 109q11 10 56 55l120 122q60 59 113 99q17 13 17 14t-19 -10q-51 -29 -120 -93q-21 -20 -83.5 -81t-114.5 -110q169 198 315 400q24 33 54 68t69.5 78t58.5 65l7 7t9 10.5t6.5 10.5t3 11.5t-5.5 10.5q-4 2 -8 2t-8 -2t-6.5 -3.5t-6.5 -5t-5 -4.5q-6 -4 -138 -117
q-169 -143 -265 -211q-68 -48 -109 -65q-52 -22 -56 5q-2 15 6 43q14 45 55 120q24 44 37 63.5t41 55.5z" />
    <glyph glyph-name="Zcaron" unicode="&#x17d;" horiz-adv-x="618" 
d="M265 -4q-61 -51 -120 -75q-18 -8 -36 -13t-41.5 -5t-35.5 12q-14 14 -1 29.5t31 25.5q65 36 193 27q5 -1 10 -1zM240 422q-14 -5 -12 -14q1 -6 13 -4q24 3 94 28t148 48t131 25q5 0 18 2.5t19 3t12 -2.5q1 -2 1 -7q0 -16 -18 -49q-21 -38 -63 -94q-16 -21 -108 -133
q-4 -5 -6 -8q-89 -120 -175 -196q-1 -2 -3 -3l-34 4q-179 15 -241 -54q-14 -15 -16 -35t13 -37q18 -17 49 -18.5t56.5 5.5t48.5 18q66 30 135 91q84 -11 187 -42q85 -25 174 -33.5t208 -10.5q39 0 51.5 1t-1 3t-50.5 5q-9 1 -60 5t-67 5.5t-59 6.5t-67 9.5t-58.5 12
t-63.5 16.5q-93 30 -171 43q81 76 163 190q1 0 41 50q69 85 106 142q37 55 46 88q8 29 -9 43q-11 8 -29 10.5t-43 -0.5t-50.5 -8t-59 -15.5t-58.5 -18.5t-59.5 -21t-52.5 -19.5t-47 -18t-33 -13.5zM472 588q-3 0 -7 -3t-9 -9.5t-9.5 -13.5t-11 -17t-11.5 -17q0 6 -0.5 16
t-0.5 17t-0.5 14t-1.5 10.5t-2 3.5q-4 0 -9 -17.5t-6.5 -35.5t3.5 -28q2 -4 10 -5q23 2 39 24t16.5 40t-0.5 21z" />
    <glyph glyph-name="zcaron" unicode="&#x17e;" horiz-adv-x="135" 
d="M45 90q36 25 52 42q10 12 10 22q0 5 -2.5 8.5t-8 6t-9 3.5t-11 2t-9.5 1q-4 1 -15.5 4.5t-20.5 5t-18 0.5q-18 -1 -29.5 -8t-10.5 -14q0 -7 8 -10.5t20.5 -3t24 1.5t25 3t17.5 2q15 -1 20 -3q-4 -6 -8 -10.5t-11 -10t-10 -8t-13.5 -9t-11.5 -6.5q-35 -24 -37 -25
q0 -7 -1 -18q4 0 7 1q4 -1 7 -1l1 1q10 0 18 -1q18 4 25.5 -9t5 -36t-7 -41.5t-9.5 -32.5q-32 -96 -84 -137q-30 -24 -55 -15q-42 23 148 221q4 4 0 3q-3 0 -6 -2q-15 -8 -41 -31q-64 -55 -103 -111q-54 -79 -8 -102q51 -22 105 39q44 49 70 126q6 20 10.5 40.5t6 46
t-7.5 43.5t-30 22h-3zM89 151l-1 1q1 0 1 -1z" />
    <glyph glyph-name="circumflex" unicode="&#x2c6;" horiz-adv-x="131" 
d="M23 355q-5 -7 9 -18t20 -4q1 2 2 12q15 20 28 38q1 -2 1 -4q2 -44 10 -44q7 0 12 44q2 15 3 29v10q1 4 0 7v4q0 1 -2.5 5t-10.5 5q-6 0 -8 -2q-4 -4 -5 -6q-2 -2 -4 -6q-4 -6 -11 -19q-26 -49 -29 -50t-6 -0.5t-5.5 0.5t-3.5 -1zM82 422z" />
    <glyph glyph-name="tilde" unicode="&#x2dc;" horiz-adv-x="211" 
d="M23 186q-3 -4 -0.5 -9.5t9 -9.5t9.5 -1q1 0 4 8q11 10 26 8q9 -1 32 -17q38 -25 64 -15q7 3 16 10.5t6 10.5q-1 2 -6 0.5t-11.5 -4t-9.5 -2.5q-9 0 -12 -1t-10.5 3t-9.5 5t-9 5.5t-9 5.5q-36 25 -63 10q-3 -2 -6 -3.5t-4.5 -2.5t-2.5 -1q-1 -1 -4.5 0t-5 1t-3.5 -1z" />
    <glyph glyph-name="endash" unicode="&#x2013;" horiz-adv-x="292" 
d="M80 199q-33 -4 -35 -3t-6 6t-7 5q-6 0 -7.5 -9.5t1.5 -18t8 -8.5q2 0 6 3t6 3h1q14 0 36 -0.5t67.5 -1t75 3.5t28.5 13q-2 10 -77 10.5t-97 -3.5z" />
    <glyph glyph-name="emdash" unicode="&#x2014;" horiz-adv-x="323" 
d="M80 199q-33 -4 -35 -3t-6 6t-7 5q-6 0 -7.5 -9.5t1.5 -18t8 -8.5q2 0 6 3t6 3h1q17 0 42.5 -0.5t78.5 -1t87.5 3.5t33.5 13q-2 10 -94.5 10.5t-114.5 -3.5z" />
    <glyph glyph-name="quoteleft" unicode="&#x2018;" horiz-adv-x="96" 
d="M40 383q4 6 -0.5 18.5t0.5 17.5q31 33 36 63q3 17 -12 8q-5 -4 -10 -9q-12 -14 -30 -50q-12 -23 1 -44q7 -14 15 -4z" />
    <glyph glyph-name="quoteright" unicode="&#x2019;" horiz-adv-x="96" 
d="M55 489q-4 -6 0.5 -18t-1.5 -17q-31 -34 -36 -63q-3 -18 12 -8q6 3 10 8q13 14 31 50q12 23 -1 45q-8 13 -15 3z" />
    <glyph glyph-name="quotesinglbase" unicode="&#x201a;" horiz-adv-x="168" 
d="M63 6q-2 -1 -1 -9l-1.5 -1t-3.5 -3.5t-4 -4.5q-32 -33 -36 -63q-3 -17 11 -8q6 4 10 9q13 13 31 49q3 7 7 9q8 6 5 11t-10 8.5t-8 2.5z" />
    <glyph glyph-name="quotedblleft" unicode="&#x201c;" horiz-adv-x="149" 
d="M92 383q4 6 -0.5 18.5t0.5 17.5q31 33 36 63q3 17 -12 8q-5 -4 -10 -9q-12 -14 -30 -50q-12 -23 1 -44q7 -14 15 -4zM40 383q4 6 -0.5 18.5t0.5 17.5q31 33 36 63q3 17 -12 8q-5 -4 -10 -9q-12 -14 -30 -50q-12 -23 1 -44q7 -14 15 -4z" />
    <glyph glyph-name="quotedblright" unicode="&#x201d;" horiz-adv-x="150" 
d="M56 489q-4 -6 0.5 -18t-1.5 -17q-31 -34 -36 -63q-3 -18 12 -8q6 3 10 8q13 14 31 50q12 23 -1 45q-8 13 -15 3zM108 489q-4 -6 0.5 -18t-0.5 -17q-32 -34 -36 -63q-4 -18 11 -8q6 3 10 8q13 14 31 50q12 23 -1 45q-8 13 -15 3z" />
    <glyph glyph-name="quotedblbase" unicode="&#x201e;" horiz-adv-x="168" 
d="M63 6q-2 -1 -1 -9l-1.5 -1t-3.5 -3.5t-4 -4.5q-32 -33 -36 -63q-3 -17 11 -8q6 4 10 9q13 13 31 49q3 7 7 9q8 6 5 11t-10 8.5t-8 2.5zM100 -12q-32 -33 -36 -63q-4 -17 11 -8q6 4 10 9q13 13 31 49q3 7 7 9q8 5 1 12q-8 10 -24 -8z" />
    <glyph glyph-name="bullet" unicode="&#x2022;" horiz-adv-x="122" 
d="M23 118q0 16 11 27t27 11t27 -11t11 -27t-11 -27t-27 -11t-27 11t-11 27z" />
    <glyph glyph-name="perthousand" unicode="&#x2030;" horiz-adv-x="364" 
d="M151 32zM175 59q-1 -2 -3 -6.5t-3.5 -7.5t-4 -6t-6 -4.5t-7.5 -1.5q0 6 7 17.5t10 11.5q2 0 7 -3zM179 63q-2 7 -10 16t-12 6q-1 -1 -2 -9l-6.5 -6.5l-9.5 -9.5t-9 -12t-4.5 -14t2.5 -15q9 -13 25.5 -12t26.5 13q15 19 5 38q-3 5 -6 5zM135 390q0 6 9.5 16t14.5 7l4 -4
q-2 -1 -7.5 -6.5t-10.5 -8.5t-10 -4zM335 432q-6 6 -14 5.5t-14 -6.5q-6 -5 -18 -24q1 0 -2.5 -3t-9 -8.5l-12 -12t-15 -14.5t-15.5 -16q-55 -57 -99 -118q-58 -82 -91 -162q-8 -21 -13.5 -39t-6.5 -25.5t0 -10.5q1 0 3 2.5t5.5 9t7 13.5t10 19.5t12.5 22.5q44 82 101 162
q46 64 87 112q43 49 52 55q4 2 14 4.5t14 5.5q7 6 8 14.5t-4 13.5zM170 413q-1 5 -2.5 11t-4.5 11t-5 4t-6 -8l-7 -3.5t-9.5 -4.5t-8.5 -5t-8.5 -7t-6 -7.5t-4.5 -8.5t0 -9.5t4 -11.5q7 -9 18 -10.5t20 4.5q17 11 23 30q5 16 -3 15zM248 32zM272 59q-1 -2 -3 -6.5t-3.5 -7.5
t-4 -6t-6 -4.5t-7.5 -1.5q-1 6 6.5 17.5t10.5 11.5q1 0 7 -3zM276 63q-2 7 -10 16t-12 6q-2 -1 -2 -9q-1 -1 -7 -6.5t-9.5 -9.5t-8.5 -12t-5 -14t3 -15q8 -13 25 -12t27 13q15 19 5 38q-3 5 -6 5zM133 390z" />
    <glyph glyph-name="guilsinglleft" unicode="&#x2039;" horiz-adv-x="200" 
d="M180 478q-9 15 -35 7.5t-54 -24t-49.5 -35.5t-21.5 -28q0 -7 27 -30t57 -39t35 -5q5 10 -17.5 26t-47.5 30t-24 19q1 6 16.5 14.5t35.5 16.5t39.5 16.5t31 16.5t7.5 15z" />
    <glyph glyph-name="Euro" unicode="&#x20ac;" horiz-adv-x="359" 
d="M134 -7q-23 -3 -32.5 10t-6 36.5t8.5 41.5t12 36h18q115 0 115 9q0 4 -39.5 6.5t-86.5 1.5q8 18 18 35h16q115 0 115 9q0 4 -37 6.5t-84 2.5q23 38 48 68l22 24l27 23l10 6l9 4h4q9 0 20 -9t14 -10q10 -5 15.5 1.5t2.5 18.5q-3 17 -22 23t-37 -4q-5 -3 -17 -10.5
t-19 -10.5q-7 -6 -14.5 -13t-16.5 -15.5t-14 -13.5q-34 -37 -61 -82q-79 -2 -79 -9q0 -6 69 -8l-18 -36q-75 -2 -75 -8t69 -9q-9 -21 -13.5 -46t-4 -52t17.5 -42t50 -10q38 -2 104.5 40t97.5 102q-65 -56 -115 -86.5t-91 -29.5z" />
  </font>
</defs>
</svg>
